ML
     
  Уважаемый Гость!
Вы можете поддержать проект и зарегистрироваться у наших партнеров - онлайн-стратегия MyLands. При регистрации в игре Вы получите код, который сможете активировать после регистрации на pirat.ca и получить 1000 дублонов.

Ваш код:
6f9ab67d502902cc72a06c406977ddb589b7f39d
 
     

Голубая кровь / Blue Bloods / Сезон: 4 / Серии: 1-22 из 22 (Ральф Хемекер, Фредерик Кинг Келлер, Майкл Прессман) [2013 г., драма, криминал, HDTVRip, 720p] (Sub) [Sub (Rus)] (Notabenoid)

Ответить на тему
 
Автор
Сообщение

Пост 18-Май-2014 23:36

[Q] 

flex77

Лоцман

-Голубая кровь / Blue Bloods-- Производство: США
Жанр: драма, криминал
Год выпуска: 2013 г.
Продолжительность: 00:45:00
Перевод: Субтитры [Notabenoid ( Podruga, irver, atever, Milo_slava , aaaaaaaaaaaaaaaa, Zombie_Smasher, obezyna, JillSky и другие) ]
Оригинальный аудиопоток: английский
Режиссер: Ральф Хемекер, Фредерик Кинг Келлер, Майкл Прессман-В ролях: Дженнифер Винер, Лен Кариу, Уилл Эстес, Бриджет Мойнэхэн, Том Селлек, Донни Уолберг, Майк Хэвок, Флекс Александр, Коллин Клинтон, Дэвид Энзуэло-Описание: 4-й сезон криминально-драматического популярного американского телесериала «Голубая кровь» (оригинальное название Blue Bloods) о семье полицейских из Нью-Йорка.
Первые два сезона получили очень высокие рейтинги и множество положительных отзывов от зрителей, а его создатели, которые также работали над сериалом «Клан Сопрано», получили две премии «Эмми». Основными персонажами сериала является семья Рейганов.
Френк Рейган — глава полиции Нью-Йорка и патриарх семейства Рейганов, которым он управляет столь же дипломатично, как управляет полицией, даже когда имеет дело с политикой, что досаждала его чрезмерно смелому отцу, Генри, когда тот был главой полиции. Источником гордости и беспокойства Френка является его старший сын, Дэнни, опытный детектив, семейный человек и ветеран войны в Ираке, который иногда прибегает к сомнительным методам для раскрытия дел.
Единственная женщина в семье, Эрин, работает помощником прокурора Нью-Йорка, мать-одиночка, которая служит компасом закона для братьев и отца. Джейми — младший из Рейганов, недавно закончил юридический Гарварда и считается «золотым ребенком» семьи. Но он решил следовать семейной традиции, и отказался от работы в престижной юридической фирме, чтобы стать копом.-
Качество видео: HDTVRip
Контейнер: MKV
Стандарт разрешения: 720p
Видео кодек: H.264
Аудио кодек: AC3
Видео: 1280х720 (16:9), 23.976 fps, 2913 kbps, 0.132 bit/pixel
Аудио: English, AC3, 48 KHz, 6 ch, 384 kbps
Cубтитры: русские
Формат субтитров: softsub (SRT)
Общее
Уникальный идентификатор : 7514952977339625853030460587632284354 (0x5A753C9BBFEFDA62B3FE62F194CD2C2)
Полное имя : E:\Blue.Bloods.S04E03.720p.HDTV.X264-DIMENSION [PublicHD]\Blue.Bloods.S04E03.720p.HDTV.X264-DIMENSION.mkv
Формат : Matroska
Версия формата : Version 2
Размер файла : 988 Мбайт
Продолжительность : 41 м.
Общий поток : 3364 Кбит/сек
Дата кодирования : UTC 2013-10-11 19:25:49
Программа кодирования : mkvmerge v3.0.0 ('Hang up your Hang-Ups') built on Apr 19 2010 11:58:49
Библиотека кодирования : libebml v0.7.7 + libmatroska v0.8.1
Видео
Идентификатор : 1
Формат : AVC
Формат/Информация : Advanced Video Codec
Профиль формата : [email protected]
Параметр CABAC формата : Да
Параметр ReFrames формата : 9 кадров
Идентификатор кодека : V_MPEG4/ISO/AVC
Продолжительность : 41 м.
Битрейт : 2913 Кбит/сек
Ширина : 1280 пикселей
Высота : 720 пикселей
Соотношение сторон : 16:9
Режим частоты кадров : Постоянный
Частота кадров : 23,976 кадра/сек
Цветовое пространство : YUV
Субдискретизация насыщенности : 4:2:0
Битовая глубина : 8 бит
Тип развёртки : Прогрессивная
Бит/(Пиксели*Кадры) : 0.132
Размер потока : 856 Мбайт (87%)
Библиотека кодирования : x264 core 138 r2358 9e941d1
Настройки программы : cabac=1 / ref=9 / deblock=1:-2:-2 / analyse=0x3:0x133 / me=umh / subme=10 / psy=1 / psy_rd=1.00:0.00 / mixed_ref=1 / me_range=32 / chroma_me=1 / trellis=2 / 8x8dct=1 / cqm=0 / deadzone=21,11 / fast_pskip=0 / chroma_qp_offset=-2 / threads=18 / lookahead_threads=2 / sliced_threads=0 / nr=0 / decimate=1 / interlaced=0 / bluray_compat=0 / constrained_intra=0 / bframes=5 / b_pyramid=2 / b_adapt=2 / b_bias=0 / direct=3 / weightb=1 / open_gop=0 / weightp=2 / keyint=250 / keyint_min=23 / scenecut=40 / intra_refresh=0 / rc_lookahead=60 / rc=crf / mbtree=1 / crf=18.0 / qcomp=0.60 / qpmin=0 / qpmax=69 / qpstep=4 / ip_ratio=1.40 / aq=1:1.00
Язык : English
Default : Нет
Forced : Нет
Коэффициенты матрицы : BT.709
Аудио
Идентификатор : 2
Формат : AC-3
Формат/Информация : Audio Coding 3
Расширение режима : CM (complete main)
Параметр Endianness формата : Big
Идентификатор кодека : A_AC3
Продолжительность : 41 м.
Вид битрейта : Постоянный
Битрейт : 384 Кбит/сек
Каналы : 6 каналов
Расположение каналов : Front: L C R, Side: L R, LFE
Частота : 48,0 КГц
Битовая глубина : 16 бит
Метод сжатия : С потерями
Размер потока : 113 Мбайт (11%)
Default : Да
Forced : Нет
Полный 4 сезон
Download / Скачать

Хотите скачать бесплатно? Зарегистрируйтесь на сайте (ссылка на регистрацию). Pirat.ca - самый быстрый торрент трекер в рунете!

Как скачивать  ·   Что такое торрент  ·   Рейтинг и ограничения

Показать сообщения:    
Ответить на тему

Текущее время: Сегодня 16:31

Часовой пояс: GMT + 4



Вы не можете начинать темы
Вы не можете отвечать на сообщения
Вы не можете редактировать свои сообщения
Вы не можете удалять свои сообщения
Вы не можете голосовать в опросах
Вы не можете прикреплять файлы к сообщениям
Вы не можете скачивать файлы

▼ Вниз