ML
     
  Уважаемый Гость!
Вы можете поддержать проект и зарегистрироваться у наших партнеров - онлайн-стратегия MyLands. При регистрации в игре Вы получите код, который сможете активировать после регистрации на pirat.ca и получить 1000 дублонов.

Ваш код:
0af2e2107bc9b5dd5ac2c09f9fc25e1a77c43887
 
     

Игра Престолов / Game of Thrones / Сезон: 4 / Серия: 7 - «Пересмешник»(«Mockingbird») (Алан Тейлор / Alan Taylor, Алекс Грейвз / Alex Graves, Даниэль Минахан / Daniel Mina) [2014 г., Фэнтези, драма, приключения, экранизация, HDTVRip, 720p] VO (Kerob)

Ответить на тему
 
Автор
Сообщение

Пост 19-Май-2014 20:20

[Q] 

MaXoR

Флибустьер

-Игра Престолов / Game of Thrones-- Производство: США, Великобритания, Bighead Littlehead, Created By, Generator Entertainment, Home Box Office (HBO), Television 360
Жанр: Фэнтези, драма, приключения, экранизация
Год выпуска: 2014 г.
Продолжительность: 51:18
Мировая премьера: 17 апреля 2011
Российская премьера: 8 сентября 2011
Перевод: Любительский (одноголосый, закадровый) [Kerob]
Режиссер: Алан Тейлор / Alan Taylor, Алекс Грейвз / Alex Graves, Даниэль Минахан / Daniel Minahan

-В ролях: Лина Хиди, Питер Динклэйдж, Мишель Фэйрли, Эмилия Кларк, Кит Харингтон, Николай Костер-Валдау, Иэн Глен, Эйден Гиллен, Элфи Оуэн-Аллен, Мэйси Уильямс, Софи Тёрнер, Джек Глисон, Айзек Хемпстед-Райт, Ричард Мэдден, Джером Флинн, Конлет Хилл, Дональд Самптер, Рори МакКанн, Амрита Ачария, Чарльз Дэнс, Джон Брэдли, Кристиан Нэйрн, Сибель Кекилли, Джеймс Космо, Стивен Диллэйн, Гетин Энтони, Гвендолин Кристи, Натали Дормер, Уна Чаплин-Описание: Тирион получает неожиданного союзника. Даарио просит Дейнерис позволить делать ему то, в чем он силен. Предупреждения Джона об уязвимости стены не принимаются в расчет. Бриенна следует за новым проводником.-Качество видео: HDTVRip
Контейнер: MKV
Стандарт разрешения: 720p
Видео кодек: Xvid
Аудио кодек: MP3
Видео: 1280 x 720 (1.778), 2946 Кбит/сек, 23.976 fps
Аудио: 192 Кбит/сек, 2 канала, 48,0 КГц |Kerob|
Cубтитры: отсутствуют
Общее
Уникальный идентификатор : 237391179150519054668959481895176062777 (0xB297E0C79E5BE23390BB6A8B10134739)
Полное имя : D:\Файлы с Интернета\Igra.prestolov.S04E07.L1.HDTV.Kerob.mkv
Формат : Matroska
Версия формата : Version 2
Размер файла : 1,15 Гбайт
Продолжительность : 51 м.
Общий поток : 3201 Кбит/сек
Дата кодирования : UTC 2014-05-19 04:08:25
Программа кодирования : mkvmerge v3.3.0 ('Language') built on Mar 24 2010 14:59:24
Библиотека кодирования : Lavf54.63.104
Видео
Идентификатор : 1
Формат : MPEG-4 Visual
Профиль формата : [email protected]
Параметр BVOP формата : Нет
Параметр QPel формата : Нет
Параметр GMC формата : Без точки перехода
Параметр матрицы формата : Default (H.263)
Идентификатор кодека : V_MPEG4/ISO/ASP
Идентификатор кодека/Информация : Advanced Simple Profile
Продолжительность : 51 м.
Битрейт : 2946 Кбит/сек
Ширина : 1280 пикселей
Высота : 720 пикселей
Соотношение сторон : 16:9
Режим частоты кадров : Постоянный
Частота кадров : 23,976 кадра/сек
Цветовое пространство : YUV
Субдискретизация насыщенности : 4:2:0
Битовая глубина : 8 бит
Тип развёртки : Прогрессивная
Метод сжатия : С потерями
Бит/(Пиксели*Кадры) : 0.133
Размер потока : 1,06 Гбайт (92%)
Библиотека кодирования : Lavc54.92.100
Default : Нет
Forced : Нет
Аудио
Идентификатор : 2
Формат : MPEG Audio
Версия формата : Version 1
Профиль формата : Layer 3
Режим : Joint stereo
Идентификатор кодека : A_MPEG/L3
Идентификатор кодека/Подсказка : MP3
Продолжительность : 51 м.
Вид битрейта : Постоянный
Битрейт : 192 Кбит/сек
Каналы : 2 канала
Частота : 48,0 КГц
Метод сжатия : С потерями
Размер потока : 70,5 Мбайт (6%)
Default : Да
Forced : Нет


Давно уже ничего не раздавал, поэтому решил внести свой вклад.
Раздача может быть поглощена. Если модераторы сочтут приемлемой эту тему - буду дальше раздавать в mkv формате, добавлю старые, а потом и новые серии. Кому понравилась раздача - не стесняйтесь говорить спасибо!
Download / Скачать

Хотите скачать бесплатно? Зарегистрируйтесь на сайте (ссылка на регистрацию). Pirat.ca - самый быстрый торрент трекер в рунете!

Как скачивать  ·   Что такое торрент  ·   Рейтинг и ограничения

Показать сообщения:    
Ответить на тему

Текущее время: Сегодня 00:05

Часовой пояс: GMT + 4



Вы не можете начинать темы
Вы не можете отвечать на сообщения
Вы не можете редактировать свои сообщения
Вы не можете удалять свои сообщения
Вы не можете голосовать в опросах
Вы не можете прикреплять файлы к сообщениям
Вы не можете скачивать файлы

▼ Вниз