ML
     
  Уважаемый Гость!
Вы можете поддержать проект и зарегистрироваться у наших партнеров - онлайн-стратегия MyLands. При регистрации в игре Вы получите код, который сможете активировать после регистрации на pirat.ca и получить 1000 дублонов.

Ваш код:
8dcb839cf1b47e56d6dc42d17f26b3e4822e9aee
 
     

Родина / Homeland (Сезон: 1 / Серии: 1-12) (Говард Гордон, Алекс Ганза, Гидеон Рэфф) [2011 г., Триллер, драма, детектив, HDTVRip] MVO (LostFilm)

Ответить на тему
 
Автор
Сообщение

Пост 12-Янв-2012 16:32

[Q] 

sergokov

Флибустьер

Родина / Homeland
(Сезон: 1 / Серии: 1-12)
Год выпуска: 2011
Производство: США
Жанр: Триллер, драма, детектив
Продолжительность серии:12 ~ 42:00
Перевод: Профессиональный (многоголосый, закадровый) [LostFilm]
Субтитры: отсутствуют-Режиссер:
Говард Гордон, Алекс Ганза, Гидеон Рэфф
В ролях
Диего Клаттенхофф, Мори Стерлинг, Морена Баккарин, Клэр Дэйнс, Дамиан Льюис, Навид Негабан, Мэнди Пэтинкин, Храч Титизиан, Омид Абтахи, Амир Арисон и др.-Описание
В центре сюжета находятся сержант морской пехоты ВМФ США Скотт Броди, вернувшийся домой после восьми лет отсутствия без вести в Ираке, и Кэрри Андерсон, офицер ЦРУ, которая подозревает его в причастности к подготовке террористической атаки на Америку...- , ,
Источник/Качество: HDTVRip
Формат: AVI
Видео кодек: XviD
Аудио кодек: MP3
Видео: 704x400 (16:9), 23.976 fps, ~1250 kbps avg, 0.184 bit/pixel
Аудио: 48 kHz, 2/0 (L,R) ch, ~128 kbps
Общее
Полное имя : Homeland.S01.rus.LostFilm\Homeland.S01E01.rus.LostFilm.TV.avi
Формат : AVI
Формат/Информация : Audio Video Interleave
Размер файла : 554 Мбайт
Продолжительность : 55 м.
Общий поток : 1386 Кбит/сек
Программа кодирования : Nandub v1.0rc2
Библиотека кодирования : Nandub build 1853/release
Видео
Идентификатор : 0
Формат : MPEG-4 Visual
Профиль формата : Advanced [email protected]
Параметр BVOP формата : 1
Параметр QPel формата : Нет
Параметр GMC формата : Без точки перехода
Параметр матрицы формата : Выборочная
Идентификатор кодека : XVID
Идентификатор кодека/Подсказка : XviD
Продолжительность : 55 м.
Битрейт : 1246 Кбит/сек
Ширина : 704 пикс.
Высота : 400 пикс.
Соотношение сторон : 16:9
Частота кадров : 23,976 кадр/сек
Цветовое пространство : YUV
Подвыборка цветности : 4:2:0
Битовая глубина : 8 бит
Тип развёртки : Прогрессивная
Метод сжатия : С потерями
Бит/(Пиксели*Кадры) : 0.184
Размер потока : 498 Мбайт (90%)
Библиотека кодирования : XviD 64
Аудио
Идентификатор : 1
Формат : MPEG Audio
Версия формата : Version 1
Профиль формата : Layer 3
Режим : Joint stereo
Расширение режима : MS Stereo
Идентификатор кодека : 55
Идентификатор кодека/Подсказка : MP3
Продолжительность : 55 м.
Вид битрейта : Постоянный
Битрейт : 128 Кбит/сек
Каналы : 2 канала
Частота : 48,0 КГц
Метод сжатия : С потерями
Задержка видео : 1 мс.
Размер потока : 51,2 Мбайт (9%)
Выравнивание : Соединение по промежуткам
Продолжительность промежутка : 24 мс. (0,58 видеокадр)
Время предзагрузки промежутка : 481 ms
Внимание! Сериал содержит откровенные сцены!
Download / Скачать

Хотите скачать бесплатно? Зарегистрируйтесь на сайте (ссылка на регистрацию). Pirat.ca - самый быстрый торрент трекер в рунете!

Как скачивать  ·   Что такое торрент  ·   Рейтинг и ограничения



Последний раз редактировалось: sergokov (2012-01-16 17:26), всего редактировалось 2 раз(а)

Пост 16-Янв-2012 17:37 (спустя 4 дня)

Топик был перенесен из форума Сериалы в форум Зарубежные сериалы

C2H5OH
 

h5n1

Гроза морей

483

Пост 01-Мар-2012 07:03 (спустя 1 месяц 17 дней)

[Q] 

спасибо забрал,а стоит смотреть?

_________________
«Мы находимся здесь, чтобы внести свой вклад в этот мир. Иначе зачем мы здесь?» S.Jobs
[Профиль]  [ЛС] 

krasavchik

Лоцман

Пост 10-Окт-2012 21:55 (спустя 7 месяцев 9 дней)

[Q] 

Просто супер
[Профиль]  [ЛС] 

raven90

Лоцман

Пост 19-Ноя-2012 15:40 (спустя 1 месяц 8 дней)

[Q] 

[Профиль]  [ЛС] 

viktor41

Шкипер

Пост 15-Окт-2014 17:02 (спустя 1 год 10 месяцев)

[Q] 

sergokov, Автору респект!!! Спасибо!!!
[Профиль]  [ЛС] 

blackmag

Шкипер

Пост 17-Окт-2015 00:26 (спустя 1 год)

[Q] 

отзовитесь, раздайте!
[Профиль]  [ЛС] 

янка-сан

Гроза морей

Пост 18-Дек-2015 20:45 (спустя 2 месяца 1 день)

[Q] 

благодарю Лови бочку
[Профиль]  [ЛС] 
Показать сообщения:    
Ответить на тему

Текущее время: Сегодня 04:17

Часовой пояс: GMT + 4



Вы не можете начинать темы
Вы не можете отвечать на сообщения
Вы не можете редактировать свои сообщения
Вы не можете удалять свои сообщения
Вы не можете голосовать в опросах
Вы не можете прикреплять файлы к сообщениям
Вы не можете скачивать файлы

▼ Вниз