ML
     
  Уважаемый Гость!
Вы можете поддержать проект и зарегистрироваться у наших партнеров - онлайн-стратегия MyLands. При регистрации в игре Вы получите код, который сможете активировать после регистрации на pirat.ca и получить 1000 дублонов.

Ваш код:
ea554e7ed3eacceeae87a8b30a9de3f086c18a84
 
     

Черный список / The Blacklist / Сезон 1 / Полный / Серии: 22 из 22) (Джейс Александр / Jace Alexander ...) [2013г., Боевик, Триллер, Криминал, Детектив, WEB-DLRip] MVO (LostFilm)

Ответить на тему
 
Автор
Сообщение

Пост 29-Май-2014 14:40

[Q] 

kugesan

Черный список / The Blacklist
«Never trust a criminal...until you have to»
- Русское название: Черный список
Оригинальное название: The Blacklist
Страна: США
Год выпуска: 2013
Жанр: Боевик, Триллер, Криминал, Детектив-Озвучка: Студия
Перевод: Многоголосый закадровый, профессиональный-Премьера (мир): 23 сентября 2013
Премьера (РФ): 12 октября 2013-Режиссер: Джейс Александр / Jace Alexander, Джо Карнахан / Joe Carnahan, Майкл В. Уоткинс / Michael W. Watkins
В главных ролях: Джеймс Спэйдер, Меган Бун, Диего Клаттенхофф, Гарри Дж. Ленникс, Райан Игголд, Ильфенеш Хадера, Парминдер К. Награ, Чарльз Бэйкер, Дебора С. Крэйг, Аннет Махендру ...-Описание фильма:
На протяжении десятилетий бывший правительственный агент Рэймонд Реддингтон был одним из самых разыскиваемых беглецов ФБР. Неожиданно он решает сдаться…-Сезон: 1
Серии: 22 из 22 серий
Продолжительность: ~ 00:45:00 мин серия-Качество видео: WEB-DLRip
Формат: AVI
Видеокодек: XviD
Аудиокодек: Mp3
Видео: MPEG-4 Visual at 1915 Кбит/сек: 720 x 400 (1.800) at 23.976 fps, 0.28 Бит/Пиксели
Аудио Rus: MPEG Audio at 192 Кбит/сек: 2 канала, 48,0 КГц |LostFilm|
- -
  • Pilot (Пилот)
  • Фрилансер (The Freelancer)
  • Ву Джин (Wujing)
  • Суповар (The Stewmaker)
  • Курьер (The Courier)
  • Джина Занетакос (Gina Zanetakos)
  • Фредерик Барнс (Frederick Barnes)
  • Генерал Луд (General Ludd)
  • Энсло Гэррик. Часть 1 (Anslo Garrick)
  • Энсло Гэррик. Развязка (Anslo Garrick: Conclusion)
  • Добрый самаритянин (The Good Samaritan)
  • Алхимик (The Alchemist)
  • Кипрское агентство (The Cyprus Agency
  • Мэделин Прэтт (Madeline Pratt)
  • Судья (The Judge)
  • Мако Танида (Mako Tanida)
  • Иван (Ivan)
  • Милтон Боббит (Milton Bobbit)
  • Братья Павлович (The Pavlovich Brothers)
  • Создатель королей (The Kingmaker)
  • Берлин. Часть 1 (Berlin)
  • Берлин. Развязка (Berlin: Conclusion)
-
Код:
Общее
Полное имя                               : E:\_Сериалы\111\Черный список\The Blacklist  1 - LostFilm\The.Blacklist.S01E01.rus.LostFilm.TV.avi
Формат                                   : AVI
Формат/Информация                        : Audio Video Interleave
Размер файла                             : 687 Мбайт
Продолжительность                        : 45 м.
Общий поток                              : 2120 Кбит/сек
Программа кодирования                    : Nandub v1.0rc2
Библиотека кодирования                   : Nandub build 1853/release
Видео
Идентификатор                            : 0
Формат                                   : MPEG-4 Visual
Профиль формата                          : [email protected]
Параметр BVOP формата                    : Нет
Параметр QPel формата                    : Нет
Параметр GMC формата                     : Без точки перехода
Параметр матрицы формата                 : Default (H.263)
Идентификатор кодека                     : XVID
Идентификатор кодека/Подсказка           : XviD
Продолжительность                        : 45 м.
Битрейт                                  : 1915 Кбит/сек
Ширина                                   : 720 пикселей
Высота                                   : 400 пикселей
Соотношение сторон                       : 16:9
Частота кадров                           : 23,976 кадра/сек
Цветовое пространство                    : YUV
Субдискретизация насыщенности            : 4:2:0
Битовая глубина                          : 8 бит
Тип развёртки                            : Прогрессивная
Метод сжатия                             : С потерями
Бит/(Пиксели*Кадры)                      : 0.277
Размер потока                            : 620 Мбайт (90%)
Библиотека кодирования                   : XviD 1.2.1 (UTC 2008-12-04)
Аудио
Идентификатор                            : 1
Формат                                   : MPEG Audio
Версия формата                           : Version 1
Профиль формата                          : Layer 3
Режим                                    : Joint stereo
Расширение режима                        : MS Stereo
Идентификатор кодека                     : 55
Идентификатор кодека/Подсказка           : MP3
Продолжительность                        : 45 м.
Вид битрейта                             : Постоянный
Битрейт                                  : 192 Кбит/сек
Каналы                                   : 2 канала
Частота                                  : 48,0 КГц
Метод сжатия                             : С потерями
Размер потока                            : 62,2 Мбайт (9%)
Выравнивание                             : Соединение по промежуткам
Продолжительность промежутка             : 24  мс. (0,58 видеокадр)
Время предзагрузки промежутка            : 480  мс.
-
-Скриншоты:
-
-
1. Открыть торрент
2. Снять галки с тех файлов торрента, которые мы не хотим закачивать. Оставляем только на нужных нам файлах (файле).
3. Нажать О.К.
В клиенте utorrent
Инструкция
1) Открыть торрент

2) Снять галки с тех файлов торрента, которые мы не хотим закачивать:
* либо вручную, снимая с каждого файла галку( скрин №1)
* либо, нажав кнопку "Снять метки (Select None)", сняв сразу со всех файлов(скрин №2)
№1

№2

Оставляем только на нужных нам файлах (файле).

3)Нажать О.К
--Приятного просмотра!!!-
Download / Скачать

Хотите скачать бесплатно? Зарегистрируйтесь на сайте (ссылка на регистрацию). Pirat.ca - самый быстрый торрент трекер в рунете!

Как скачивать  ·   Что такое торрент  ·   Рейтинг и ограничения



Последний раз редактировалось: kugesan (2016-11-17 23:28), всего редактировалось 26 раз(а)

lexmar

Корсар

Пост 13-Июн-2014 21:44 (спустя 15 дней)

[Q] 

красавчик эа счет фбр крутиться
[Профиль]  [ЛС] 

printoff

Пост 20-Июн-2014 13:02 (спустя 6 дней)

[Q] 

Спасибо aa Мне понравилось
[Профиль]  [ЛС] 

nik_po

Штурман

Пост 27-Июн-2014 09:25 (спустя 6 дней)

[Q] 

спасибо Супер!
[Профиль]  [ЛС] 

digitalprofi

Шкипер

Пост 11-Июл-2014 15:59 (спустя 14 дней)

[Q] 

посмотрю Спасибо!!!

_________________
Я чертовски быстр! На прошлых выходных я обогнал чёрную перечную змею.
Серьезно! Моя скорость между змеёй и мангустом.. и пантерой..
[Профиль]  [ЛС] 

NIKROLUNGER

Флибустьер

60

Пост 17-Июл-2014 16:16 (спустя 6 дней)

[Q] 

8 серия, а я всё не могу решить - нравится мне этот фильм или нет ab
Быстро, как-то, всё проносится...
Автору респект!!!
[Профиль]  [ЛС] 

mct31

Лоцман

11

Пост 22-Авг-2014 19:12 (спустя 1 месяц 5 дней)

[Q] 

СКОРОСТИ! СКОРОСТИ! Скорость как у черепахи Не качает
[Профиль]  [ЛС] 

jofrei53

Корсар

Пост 11-Сен-2014 19:44 (спустя 20 дней)

[Q] 

Спасибо! Посмотрим с интересом...(Надеюсь...) Спасибо!!! Автору респект!!!
[Профиль]  [ЛС] 

kugesan ®

56651

Пост 21-Сен-2014 22:08 (спустя 10 дней)

[Q] 

Добавлена двадцать вторая, заключительная, серия первого сезона

_________________

В мире две бесконечности: вселенная и человеческая глупость - Альберт Эйнштен
«Можно вытащить человека из грязи, но нельзя вытащить грязь из человека»!
[Профиль]  [ЛС] 

EviL

Шкипер

Пост 21-Сен-2014 22:42 (спустя 34 минуты)

[Q] 

Так Раздавать бум ? Эй, вернитесь на раздачу...
[Профиль]  [ЛС] 

Prorok155

Корсар

Пост 13-Окт-2015 19:41 (спустя 1 год)

[Q] 

Спасибо. Автору респект!!!
[Профиль]  [ЛС] 

shelby290

Флибустьер

Пост 30-Ноя-2015 19:59 (спустя 1 месяц 17 дней)

[Q] 

Супер! !COOL! Спасибо!!!
[Профиль]  [ЛС] 

sanches997

Морской Волк

Пост 19-Фев-2016 14:29 (спустя 2 месяца 18 дней)

[Q] 

Потрясающий сериал ! И хоть идея не нова, хочется смотреть новые и новые серии. Всем качать!!!
[Профиль]  [ЛС] 
Показать сообщения:    
Ответить на тему

Текущее время: Сегодня 12:08

Часовой пояс: GMT + 4



Вы не можете начинать темы
Вы не можете отвечать на сообщения
Вы не можете редактировать свои сообщения
Вы не можете удалять свои сообщения
Вы не можете голосовать в опросах
Вы не можете прикреплять файлы к сообщениям
Вы не можете скачивать файлы

▼ Вниз