ML
     
  Уважаемый Гость!
Вы можете поддержать проект и зарегистрироваться у наших партнеров - онлайн-стратегия MyLands. При регистрации в игре Вы получите код, который сможете активировать после регистрации на pirat.ca и получить 1000 дублонов.

Ваш код:
a6d1ef7ff63e237add5a4c8b21d8aa937c5e9b4b
 
     

На грани / The Brink / Сезон: 1 / Серии: 10 из 10 (Ким Бенабиб / Jon Poll) [2015 г., комедия, HDTVRip] DVO (Kubik v Kube) + Original (Eng) [Полный]

Ответить на тему
 
Автор
Сообщение

Пост 30-Май-2014 21:33

[Q] 

kugesan

-На грани / The Brink-- Производство: США
Жанр: комедия
Год выпуска: 2015 г.-Премьера (мир): 21 июня 2015, ...
Премьера (РФ): 22 июня 2015-Подготовка релиза: Студия
Озвучка: |Kubik v Kube|
Перевод: Двухголосный, закадровый, профессиональный
Оригинальный аудиопоток: английский-Режиссер: Ким Бенабиб / Jon Poll, Роберто Бенабиб / Jay Roach, Дэйв Холстейн / Scott Winant, ...-В ролях: Тим Роббинс, Джек Блэк, Маус Джексон, Эрик Ладин, Эсай Моралес, Пабло Шрайбер, Икбал Теба, Мелани Каннокада, Марк Пэрриш, Бернард Уайт ...-Описание:
Правительство и армия США пытаются предотвратить Третью мировую войну, в то время как в мире царит геополитический кризис.-Сезон: 1
Серии: 10 из 10 серий
Продолжительность: ~ 00:31:00 мин серия-Качество видео: HDTVRip
Контейнер: AVI
Видео кодек: XviD
Аудио кодек: AC-3
Видео: MPEG-4 Visual at 1999 Кбит/сек: 720 x 400 (1.800) at 23.976 fps: 0.29 Бит/Пиксели
Аудио Rus: AC-3 at 192 Кбит/сек: 2 канала, 48,0 КГц |Kubik v Kube|
Аудио Eng: AC-3 at 192 Кбит/сек: 2 канала, 48,0 КГц |Original|
Cубтитры: отсутствуют-
-
  • Пилот (Pilot)
  • Желторотик (Half-Cocked)
  • Багдад? Хрена с два (Baghdad My Ass)
  • Не бывать мне Бэтменом (I'll Never Be Batman)
  • Плыви, Шмули, Плыви (Swim, Shmuley, Swim)
  • Твит-твит. Чирик-чирик (Tweet Tweet Tweet)
  • Затруднительное Положение (Sticky Wicket)
  • Кто такой Гровер Кливленд? (Who's Grover Cleveland?)
  • Чуточку бредней (Just a Little Crazy Talk)
  • Будут последствия (There Will Be Consequences)
-
Общее
Полное имя : E:\_Сериалы\_Сериалы\На грани\The.Brink.S01.Rus.Eng.Kubik.v.Kube\The.Brink.S01E01.Rus.Eng.Kubik.v.Kube.avi
Формат : AVI
Формат/Информация : Audio Video Interleave
Размер файла : 572 Мбайт
Продолжительность : 33 м.
Общий поток : 2398 Кбит/сек
Программа кодирования : VirtualDubMod 1.5.10.2 (build 2540/release)
Библиотека кодирования : VirtualDubMod build 2540/release
Видео
Идентификатор : 0
Формат : MPEG-4 Visual
Профиль формата : Advanced [email protected]
Параметр BVOP формата : 2
Параметр QPel формата : Нет
Параметр GMC формата : Без точки перехода
Параметр матрицы формата : Default (MPEG)
Идентификатор кодека : XVID
Идентификатор кодека/Подсказка : XviD
Продолжительность : 33 м.
Битрейт : 1999 Кбит/сек
Ширина : 720 пикселей
Высота : 400 пикселей
Соотношение сторон : 16:9
Частота кадров : 23,976 кадра/сек
Цветовое пространство : YUV
Субдискретизация насыщенности : 4:2:0
Битовая глубина : 8 бит
Тип развёртки : Прогрессивная
Метод сжатия : С потерями
Бит/(Пиксели*Кадры) : 0.290
Размер потока : 477 Мбайт (83%)
Библиотека кодирования : XviD 1.2.0.dev47 (UTC 2006-11-01)
Аудио #1
Идентификатор : 1
Формат : AC-3
Формат/Информация : Audio Coding 3
Расширение режима : CM (complete main)
Параметр Endianness формата : Big
Идентификатор кодека : 2000
Продолжительность : 33 м.
Вид битрейта : Постоянный
Битрейт : 192 Кбит/сек
Каналы : 2 канала
Расположение каналов : Front: L R
Частота : 48,0 КГц
Метод сжатия : С потерями
Размер потока : 45,8 Мбайт (8%)
Выравнивание : Разделение по промежуткам
Продолжительность промежутка : 42 мс. (1,00 видеокадр)
Время предзагрузки промежутка : 500 мс.
Аудио #2
Идентификатор : 2
Формат : AC-3
Формат/Информация : Audio Coding 3
Расширение режима : CM (complete main)
Параметр Endianness формата : Big
Идентификатор кодека : 2000
Продолжительность : 33 м.
Вид битрейта : Постоянный
Битрейт : 192 Кбит/сек
Каналы : 2 канала
Расположение каналов : Front: L R
Частота : 48,0 КГц
Метод сжатия : С потерями
Размер потока : 45,8 Мбайт (8%)
Выравнивание : Разделение по промежуткам
Продолжительность промежутка : 42 мс. (1,00 видеокадр)
Время предзагрузки промежутка : 500 мс.
-
-Скриншоты:
-
-
1. Открыть торрент
2. Снять галки с тех файлов торрента, которые мы не хотим закачивать. Оставляем только на нужных нам файлах (файле).
3. Нажать О.К.
В клиенте utorrent
Инструкция
1) Открыть торрент

2) Снять галки с тех файлов торрента, которые мы не хотим закачивать:
* либо вручную, снимая с каждого файла галку( скрин №1)
* либо, нажав кнопку "Снять метки (Select None)", сняв сразу со всех файлов(скрин №2)
№1

№2

Оставляем только на нужных нам файлах (файле).

3)Нажать О.К
Добавлена десятая, заключительная, серия первого сезона
Download / Скачать

Хотите скачать бесплатно? Зарегистрируйтесь на сайте (ссылка на регистрацию). Pirat.ca - самый быстрый торрент трекер в рунете!

Как скачивать  ·   Что такое торрент  ·   Рейтинг и ограничения



Последний раз редактировалось: kugesan (2015-08-31 21:55), всего редактировалось 14 раз(а)

lereallarun

Лоцман

Пост 04-Авг-2015 16:03 (спустя 1 год 2 месяца)

[Q] 

Первая серия доставила! Просто шик и блеск! anime8
[Профиль]  [ЛС] 

alex_dry

Гроза морей

Пост 08-Авг-2015 22:05 (спустя 4 дня)

[Q] 

Тим роббинс красава! Спасибо, качну обязательно!
[Профиль]  [ЛС] 

kugesan ®

56602

Пост 31-Авг-2015 21:56 (спустя 22 дня)

[Q] 

Добавлена десятая, заключительная, серия первого сезона

_________________

В мире две бесконечности: вселенная и человеческая глупость - Альберт Эйнштен
«Можно вытащить человека из грязи, но нельзя вытащить грязь из человека»!
[Профиль]  [ЛС] 

BofRank

Корсар

535

Пост 01-Сен-2015 00:15 (спустя 2 часа 18 минут)

[Q] 

Ну прям порадовал сериал))) Супер! Автору респект!!!
[Профиль]  [ЛС] 

lightmaster

Флибустьер

Пост 06-Сен-2015 11:43 (спустя 5 дней)

[Q] 

Заинтриговало, качаю...
[Профиль]  [ЛС] 

янка-сан

Гроза морей

Пост 18-Дек-2015 20:52 (спустя 3 месяца 12 дней)

[Q] 

благодарю Лови бочку
[Профиль]  [ЛС] 
Показать сообщения:    
Ответить на тему

Текущее время: Сегодня 13:34

Часовой пояс: GMT + 4



Вы не можете начинать темы
Вы не можете отвечать на сообщения
Вы не можете редактировать свои сообщения
Вы не можете удалять свои сообщения
Вы не можете голосовать в опросах
Вы не можете прикреплять файлы к сообщениям
Вы не можете скачивать файлы

▼ Вниз