ML
     
  Уважаемый Гость!
Вы можете поддержать проект и зарегистрироваться у наших партнеров - онлайн-стратегия MyLands. При регистрации в игре Вы получите код, который сможете активировать после регистрации на pirat.ca и получить 1000 дублонов.

Ваш код:
34514219cfad5497a1822ecc1269bea77988f9aa
 
     

Череп и кости / Crossbones (Сезон 1 / Полный / серии: 9 из 9) (Дэниэл Эттиэс / Daniel Attias, ...) [2014 г., драма, ..., WEB-DLRip] MVO (BaibaKo) + Original (Eng)

Ответить на тему
 
Автор
Сообщение

Пост 01-Июн-2014 20:25

[Q] 

kugesan

Череп и кости / Crossbones - Страна: США
Год выпуска: 2014
Жанр: драма-Релиз:
Перевод: Многоголосый закадровый, профессиональный
Оригинальный аудиопоток: английский-Перевод: Наталья Черненко и Татьяна Ланцетова
Озвучка: Anna_Smile, Дмитрий Нежельский, Сергей Корчак, Александр Фурман, Денис Толяренко и Андрей Корзаченко
Монтаж: Виталий Мартыняк
Обложка: Антон Максимов-Премьера (мир): 30 мая 2014-Режиссер: Дэниэл Эттиэс / Daniel Attias, Киаран Доннелли / Ciaran Donnelly, Деран Сарафян / Deran Sarafian, ...
В главных ролях: Джон Малкович, Трэйси Айфичор, Ясмин Эл Массри, Дэвид Хофлин, Эзра Баззингтон, Лорен Шоу, Джулиан Сэндс, Натали Блэр, Генри Херфорд, Айми Маллинз ...-Описание фильма:
1715 год. Багамский островов Нью-Провиденс. Здесь появилась первая функционирующая демократия в Америке. Дьявольский пират Эдвард Тич, он же Черная Борода, господствует здесь над нацией воров, преступников и злодеев моряков. Чтобы получить контроль над этим устрашающим обществом, опытного убийцу Тома Лоу посылают убить Черную Бороду.-Сезон: 1
Серии: 9 из 9 серий
Продолжительность: ~ 00:50:00 серия-Качество видео: WEB-DLRip
Контейнер: AVI
Видео кодек: XviD
Аудио кодек: MP3
Видео: MPEG-4 Visual at 1504 Кбит/сек: 720 x 400 (1.800) at 23.976 fps, 0.22 Бит/Пиксели
Аудио Rus: MPEG Audio at 192 Кбит/сек, 2 канала, 48,0 КГц |BaibaKo|
Аудио Eng: MPEG Audio at 192 Кбит/сек: 2 канала, 48,0 КГц |Original|
Cубтитры: отсутствуют
- -
  • Владения дьявола (The Devil's Dominion)
  • Завет (The Covenant)
  • Убийца Черной Бороды (The Man Who Killed Blackbeard)
  • Антуанетта (Antoinette)
  • Возвращение (The Return)
  • Дыра в голове (A Hole in the Head)
  • Нищий (Beggarman)
  • Череп и кости (Crossbones)
  • Чёрная борода (Blackbeard)
-
Код:
Общее
Полное имя                               : E:\_Сериалы\_Сериалы\Череп и кости\Crossbones\Crossbones.s01e01.WEB-DLRip.XviD.Rus-Eng.BaibaKo.tv.avi
Формат                                   : AVI
Формат/Информация                        : Audio Video Interleave
Размер файла                             : 684 Мбайт
Продолжительность                        : 50 м.
Общий поток                              : 1902 Кбит/сек
Программа кодирования                    : VirtualDubMod 1.5.10.2 (build 2540/release)
Библиотека кодирования                   : VirtualDubMod build 2540/release
Видео
Идентификатор                            : 0
Формат                                   : MPEG-4 Visual
Профиль формата                          : Advanced [email protected]
Параметр BVOP формата                    : 2
Параметр QPel формата                    : Нет
Параметр GMC формата                     : Без точки перехода
Параметр матрицы формата                 : Default (H.263)
Идентификатор кодека                     : XVID
Идентификатор кодека/Подсказка           : XviD
Продолжительность                        : 50 м.
Битрейт                                  : 1504 Кбит/сек
Ширина                                   : 720 пикселей
Высота                                   : 400 пикселей
Соотношение сторон                       : 16:9
Частота кадров                           : 23,976 кадра/сек
Цветовое пространство                    : YUV
Субдискретизация насыщенности            : 4:2:0
Битовая глубина                          : 8 бит
Тип развёртки                            : Прогрессивная
Метод сжатия                             : С потерями
Бит/(Пиксели*Кадры)                      : 0.218
Размер потока                            : 541 Мбайт (79%)
Библиотека кодирования                   : XviD 1.2.1 (UTC 2008-12-04)
Аудио #1
Идентификатор                            : 1
Формат                                   : MPEG Audio
Версия формата                           : Version 1
Профиль формата                          : Layer 3
Режим                                    : Joint stereo
Идентификатор кодека                     : 55
Идентификатор кодека/Подсказка           : MP3
Продолжительность                        : 50 м.
Вид битрейта                             : Постоянный
Битрейт                                  : 192 Кбит/сек
Каналы                                   : 2 канала
Частота                                  : 48,0 КГц
Метод сжатия                             : С потерями
Размер потока                            : 69,1 Мбайт (10%)
Выравнивание                             : Соединение по промежуткам
Продолжительность промежутка             : 42  мс. (1,00 видеокадр)
Время предзагрузки промежутка            : 504  мс.
Аудио #2
Идентификатор                            : 2
Формат                                   : MPEG Audio
Версия формата                           : Version 1
Профиль формата                          : Layer 3
Режим                                    : Joint stereo
Расширение режима                        : MS Stereo
Идентификатор кодека                     : 55
Идентификатор кодека/Подсказка           : MP3
Продолжительность                        : 50 м.
Вид битрейта                             : Постоянный
Битрейт                                  : 192 Кбит/сек
Каналы                                   : 2 канала
Частота                                  : 48,0 КГц
Метод сжатия                             : С потерями
Размер потока                            : 69,1 Мбайт (10%)
Выравнивание                             : Соединение по промежуткам
Продолжительность промежутка             : 42  мс. (1,00 видеокадр)
Время предзагрузки промежутка            : 504  мс.
-
-Скриншоты:
-
-Добавлена девятая, заключительная, серия первого сезона
Download / Скачать

Хотите скачать бесплатно? Зарегистрируйтесь на сайте (ссылка на регистрацию). Pirat.ca - самый быстрый торрент трекер в рунете!

Как скачивать  ·   Что такое торрент  ·   Рейтинг и ограничения



Последний раз редактировалось: kugesan (2014-08-05 22:06), всего редактировалось 9 раз(а)

egokdm

Гроза морей

1361

Пост 01-Июн-2014 21:04 (спустя 38 минут)

[Q] 

Спасибо!!!
[Профиль]  [ЛС] 

kugesan ®

56614

Пост 01-Июн-2014 21:11 (спустя 6 минут)

[Q] 

Приятного просмотра!!!

_________________

В мире две бесконечности: вселенная и человеческая глупость - Альберт Эйнштен
«Можно вытащить человека из грязи, но нельзя вытащить грязь из человека»!
[Профиль]  [ЛС] 

Ahzool

Корсар

Пост 02-Июн-2014 22:48 (спустя 1 день 1 час)

[Q] 

мерсиба!останусь на раздаче!) Вы лучшие! Лови бочку

_________________
Si non es occupatus quid natum moriendo occupatus es,beauty creatur vultus.
[Профиль]  [ЛС] 

kugesan ®

56614

Пост 02-Июн-2014 22:56 (спустя 8 минут)

[Q] 

Ahzool, aa az

_________________

В мире две бесконечности: вселенная и человеческая глупость - Альберт Эйнштен
«Можно вытащить человека из грязи, но нельзя вытащить грязь из человека»!
[Профиль]  [ЛС] 

ZAMOK

Корсар

Пост 08-Июн-2014 16:57 (спустя 5 дней)

[Q] 

aa
Лови бочку

_________________
Не бойся того,с чем не сталкивался.
[Профиль]  [ЛС] 

jeck123

Морской Волк

Пост 09-Июн-2014 08:11 (спустя 15 часов)

[Q] 

ребята как сериал норм?
[Профиль]  [ЛС] 

Ahzool

Корсар

Пост 23-Июн-2014 02:04 (спустя 13 дней)

[Q] 

545286ребята как сериал норм?
с Малковичем плохого кино не делают)))

_________________
Si non es occupatus quid natum moriendo occupatus es,beauty creatur vultus.
[Профиль]  [ЛС] 

viktor41

Шкипер

Пост 23-Июн-2014 18:33 (спустя 16 часов)

[Q] 

kugesan, СПАСИБОЧКИ !!! Всем качать!!! Супер!
[Профиль]  [ЛС] 

EDVAR

Легенда

Пост 29-Июн-2014 20:07 (спустя 6 дней)

[Q] 

Пиратка рулит! Спасибо!

_________________
"Как других судить-вы судьи.Как себя-вы адвокаты"
[Профиль]  [ЛС] 

balamutych 8

Шкипер

Пост 17-Июл-2014 23:02 (спустя 18 дней)

[Q] 

Люблю такое кино спасибо.
[Профиль]  [ЛС] 

kugesan ®

56614

Пост 05-Авг-2014 22:07 (спустя 18 дней)

[Q] 

Добавлена девятая, заключительная, серия первого сезона

_________________

В мире две бесконечности: вселенная и человеческая глупость - Альберт Эйнштен
«Можно вытащить человека из грязи, но нельзя вытащить грязь из человека»!
[Профиль]  [ЛС] 
Показать сообщения:    
Ответить на тему

Текущее время: Сегодня 07:53

Часовой пояс: GMT + 4



Вы не можете начинать темы
Вы не можете отвечать на сообщения
Вы не можете редактировать свои сообщения
Вы не можете удалять свои сообщения
Вы не можете голосовать в опросах
Вы не можете прикреплять файлы к сообщениям
Вы не можете скачивать файлы

▼ Вниз