ML
     
  Уважаемый Гость!
Вы можете поддержать проект и зарегистрироваться у наших партнеров - онлайн-стратегия MyLands. При регистрации в игре Вы получите код, который сможете активировать после регистрации на pirat.ca и получить 1000 дублонов.

Ваш код:
2932e5898d0a27592397f70b82a5834d1e70ea19
 
     

Игра Престолов / Game of Thrones / Сезон: 4 / Серия: 8 (Алан Тейлор / Alan Taylor, Алекс Грейвз / Alex Graves, Даниэль Минахан / Daniel Minahan) [2014 г., Фэнтези, драма, приключения, экранизация, HDTVRip] VO (Kerob)

Ответить на тему
 
Автор
Сообщение

Пост 02-Июн-2014 12:04

[Q] 

MaXoR

Флибустьер

-Игра Престолов / Game of Thrones--
Производство: США, Великобритания, Bighead Littlehead, Created By, Generator Entertainment, Home Box Office (HBO), Television 360
Жанр: Фэнтези, драма, приключения, экранизация
Год выпуска: 2014 г.
Продолжительность: 52:35
Мировая премьера: 1 июня 2014
Перевод: Любительский (одноголосый, закадровый) [Kerob]
Режиссер: Алан Тейлор / Alan Taylor, Алекс Грейвз / Alex Graves, Даниэль Минахан / Daniel Minahan-В ролях:
Лина Хиди, Питер Динклэйдж, Мишель Фэйрли, Эмилия Кларк, Кит Харингтон, Николай Костер-Валдау, Иэн Глен, Эйден Гиллен, Элфи Оуэн-Аллен, Мэйси Уильямс, Софи Тёрнер, Джек Глисон, Айзек Хемпстед-Райт, Ричард Мэдден, Джером Флинн, Конлет Хилл, Дональд Самптер, Рори МакКанн, Амрита Ачария, Чарльз Дэнс, Джон Брэдли, Кристиан Нэйрн, Сибель Кекилли, Джеймс Космо, Стивен Диллэйн, Гетин Энтони, Гвендолин Кристи, Натали Дормер, Уна Чаплин
-Описание:
Серия 8 - Гора и Змей (The Mountain and the Viper):
В Кротовый городок прибывают неожиданные гости. Мизинцу задают вопросы о произошедшем. Рамси пытается предстать перед отцом в лучшем свете. Участь Тириона решена.
-

Качество видео: HDTVRip
Контейнер: MKV
Видео кодек: XviD
Аудио кодек: MP3
Видео: 1280*720, 2928 Кбит/сек, 23, 976 fps
Аудио: 192 Кбит/сек, 2 ch, 48,0 kHz
Cубтитры: отсутствуют
Общее
Уникальный идентификатор : 193654866658366702391384313298280365620 (0x91B0921699E6AA18BFAFD536BCF1BE34)
Формат : Matroska
Версия формата : Version 2
Размер файла : 1,17 Гбайт
Продолжительность : 52 м.
Общий поток : 3183 Кбит/сек
Дата кодирования : UTC 2014-06-02 04:25:18
Программа кодирования : mkvmerge v3.3.0 ('Language') built on Mar 24 2010 14:59:24
Библиотека кодирования : Lavf54.63.104
Видео
Идентификатор : 1
Формат : MPEG-4 Visual
Профиль формата : [email protected]
Параметр BVOP формата : Нет
Параметр QPel формата : Нет
Параметр GMC формата : Без точки перехода
Параметр матрицы формата : Default (H.263)
Идентификатор кодека : V_MPEG4/ISO/ASP
Идентификатор кодека/Информация : Advanced Simple Profile
Продолжительность : 52 м.
Битрейт : 2928 Кбит/сек
Ширина : 1280 пикселей
Высота : 720 пикселей
Соотношение сторон : 16:9
Режим частоты кадров : Постоянный
Частота кадров : 23,976 кадра/сек
Цветовое пространство : YUV
Субдискретизация насыщенности : 4:2:0
Битовая глубина : 8 бит
Тип развёртки : Прогрессивная
Метод сжатия : С потерями
Бит/(Пиксели*Кадры) : 0.132
Размер потока : 1,08 Гбайт (92%)
Библиотека кодирования : Lavc54.92.100
Default : Нет
Forced : Нет
Аудио
Идентификатор : 2
Формат : MPEG Audio
Версия формата : Version 1
Профиль формата : Layer 3
Режим : Joint stereo
Идентификатор кодека : A_MPEG/L3
Идентификатор кодека/Подсказка : MP3
Продолжительность : 52 м.
Вид битрейта : Постоянный
Битрейт : 192 Кбит/сек
Каналы : 2 канала
Частота : 48,0 КГц
Метод сжатия : С потерями
Размер потока : 72,2 Мбайт (6%)
Default : Да
Forced : Нет
Просьба всем скачавшим помогать в раздаче, не стесняйтесь жать на Спасибо, кому релиз понравился! Enjoy!
Download / Скачать

Хотите скачать бесплатно? Зарегистрируйтесь на сайте (ссылка на регистрацию). Pirat.ca - самый быстрый торрент трекер в рунете!

Как скачивать  ·   Что такое торрент  ·   Рейтинг и ограничения

todar

Лоцман

Пост 02-Июн-2014 14:45 (спустя 2 часа 40 минут)

[Q] 

Ну, наконец! Спасибо большое! А что случилось с переводами?
[Профиль]  [ЛС] 

MaXoR ®

Флибустьер

1474

Пост 02-Июн-2014 17:16 (спустя 2 часа 31 минута)

[Q] 

542424Ну, наконец! Спасибо большое! А что случилось с переводами?
Пожалуйста! Переводы будут, вне сомнений. Их зальют другие, завтра скорее всего или попозже сегодня.
Этот релиз, так сказать, для нетерпеливых. Ну и лично я в этой озвучке смотрю.

_________________
Живы будем - не помрем!
[Профиль]  [ЛС] 

tumparov

Морской Волк

Пост 02-Июн-2014 17:44 (спустя 27 минут)

[Q] 

Роспозорзакон кажись запретил лост-фильму выкладывать данный сериал и ещё несколько, про остальных не знаю кодекс
[Профиль]  [ЛС] 

MaXoR ®

Флибустьер

1474

Пост 02-Июн-2014 18:07 (спустя 23 минуты)

[Q] 

542477Роспозорзакон кажись запретил лост-фильму выкладывать данный сериал и ещё несколько, про остальных не знаю кодекс
Все возможно, в нашем-то прекрасном государстве! Хотя в других еще жестче порой. Вспоминается процесс над админом пиратской бухты...

_________________
Живы будем - не помрем!
[Профиль]  [ЛС] 
Показать сообщения:    
Ответить на тему

Текущее время: Сегодня 08:05

Часовой пояс: GMT + 4



Вы не можете начинать темы
Вы не можете отвечать на сообщения
Вы не можете редактировать свои сообщения
Вы не можете удалять свои сообщения
Вы не можете голосовать в опросах
Вы не можете прикреплять файлы к сообщениям
Вы не можете скачивать файлы

▼ Вниз