ML
     
  Уважаемый Гость!
Вы можете поддержать проект и зарегистрироваться у наших партнеров - онлайн-стратегия MyLands. При регистрации в игре Вы получите код, который сможете активировать после регистрации на pirat.ca и получить 1000 дублонов.

Ваш код:
47bfc18b89c74e4ae0d974e9b6943639e2bff08e
 
     

Настоящий детектив / True Detective / Сезон: 2 / Полный / Серии: 8 из 8 (Кэри Фукунага / Cary Fukunaga, ...) [2015 г., детектив, криминал, триллер, драма, ..., HDTVRip] DVO (Kubik v Kube) + Original (Eng)

Ответить на тему
 
Автор
Сообщение

Пост 06-Июн-2014 21:49

[Q] 

kugesan

-Настоящий детектив / True Detective«Man is the cruelest animal»-- Производство: США
Жанр: детектив, криминал, триллер, драма, ...
Год выпуска: 2015 г.-Премьера (мир): 12 января 2014, ...
Премьера (РФ): 13 января 2014-Подготовка релиза: Студия
Озвучка: |Kubik v Kube|
Перевод: Двухголосный, закадровый, профессиональный
Оригинальный аудиопоток: английский-Режиссер: Кэри Фукунага / Cary Fukunaga, Джастин Лин / Justin Lin, Дэниэл Эттиэс / Daniel Attias, ...-В ролях: Мэттью МакКонахи, Вуди Харрельсон, Мишель Монахэн, Колин Фаррелл, Винс Вон, Рэйчел МакАдамс, Тейлор Китч, Келли Райлли, Майкл Поттс, Тори Киттлз, ...-Описание:
Мы живем в мире, который заслуживаем. В новом сезоне культового сериала зрителей ждут новое расследование и новые герои. Мрачное убийство, произошедшее в Калифорнии объединяет четырех персонажей в исполнении Колина Фаррелла, Рэйчел МакАдамс, Тейлора Китча и Винса Вона. Они объединяются, чтобы начать охоту на таинственного убийцу и разоблачить тех, чьи приказы он выполняет.-Сезон: 2
Серии: 8 из 8 серий
Продолжительность: ~ 00:57:00 мин серия-
Качество видео: HDTVRip
Контейнер: AVI
Видео кодек: XviD
Аудио кодек: AC-3
Видео: MPEG-4 Visual at 1499 Кбит/сек: 720 x 400 (1.800) at 29.970 fps: 0.17 Бит/Пиксели
Аудио Rus: AC-3 at 192 Кбит/сек: 2 канала, 48,0 КГц |Kubik v Kube|
Аудио Eng: AC-3 at 192 Кбит/сек: 2 канала, 48,0 КГц |Original|
Субтитры: Отсутствуют
-
-
  • Западная Книга мертвых (The Western Book of the Dead)
  • Ночь найдёт тебя (Night Finds You)
  • Может быть, завтра (Maybe Tomorrow)
  • Падение (Down Will Come)
  • Другие жизни (Other Lives)
  • Церковь в руинах (Church in Ruins)
  • Черные карты и комнаты мотеля (Black Maps and Motel Rooms)
  • Станция Омега (Omega Station)
-
Общее
Полное имя : E:\_Сериалы\_Сериалы\Настоящий детектив\True Detective.S02.Rus.Eng.Kubik v Kube\True.Detective.S02E01.Rus.Eng.Kubik v Kube.avi
Формат : AVI
Формат/Информация : Audio Video Interleave
Размер файла : 828 Мбайт
Продолжительность : 1 ч. 0 м.
Общий поток : 1901 Кбит/сек
Программа кодирования : VirtualDubMod 1.5.10.2 (build 2540/release)
Библиотека кодирования : VirtualDubMod build 2540/release
Видео
Идентификатор : 0
Формат : MPEG-4 Visual
Профиль формата : Advanced [email protected]
Параметр BVOP формата : 2
Параметр QPel формата : Нет
Параметр GMC формата : Без точки перехода
Параметр матрицы формата : Default (MPEG)
Идентификатор кодека : XVID
Идентификатор кодека/Подсказка : XviD
Продолжительность : 1 ч. 0 м.
Битрейт : 1499 Кбит/сек
Ширина : 720 пикселей
Высота : 400 пикселей
Соотношение сторон : 16:9
Частота кадров : 29,970 кадров/сек
Цветовое пространство : YUV
Субдискретизация насыщенности : 4:2:0
Битовая глубина : 8 бит
Тип развёртки : Прогрессивная
Метод сжатия : С потерями
Бит/(Пиксели*Кадры) : 0.174
Размер потока : 653 Мбайт (79%)
Библиотека кодирования : XviD 1.2.0.dev47 (UTC 2006-11-01)
Аудио #1
Идентификатор : 1
Формат : AC-3
Формат/Информация : Audio Coding 3
Расширение режима : CM (complete main)
Параметр Endianness формата : Big
Идентификатор кодека : 2000
Продолжительность : 1 ч. 0 м.
Вид битрейта : Постоянный
Битрейт : 192 Кбит/сек
Каналы : 2 канала
Расположение каналов : Front: L R
Частота : 48,0 КГц
Метод сжатия : С потерями
Размер потока : 83,6 Мбайт (10%)
Выравнивание : Разделение по промежуткам
Продолжительность промежутка : 33 мс. (1,00 видеокадр)
Время предзагрузки промежутка : 500 мс.
Аудио #2
Идентификатор : 2
Формат : AC-3
Формат/Информация : Audio Coding 3
Расширение режима : CM (complete main)
Параметр Endianness формата : Big
Идентификатор кодека : 2000
Продолжительность : 1 ч. 0 м.
Вид битрейта : Постоянный
Битрейт : 192 Кбит/сек
Каналы : 2 канала
Расположение каналов : Front: L R
Частота : 48,0 КГц
Метод сжатия : С потерями
Размер потока : 83,6 Мбайт (10%)
Выравнивание : Разделение по промежуткам
Продолжительность промежутка : 33 мс. (1,00 видеокадр)
Время предзагрузки промежутка : 500 мс.
-
-Скриншоты:
-
-
1. Открыть торрент
2. Снять галки с тех файлов торрента, которые мы не хотим закачивать. Оставляем только на нужных нам файлах (файле).
3. Нажать О.К.
В клиенте utorrent
Инструкция
1) Открыть торрент

2) Снять галки с тех файлов торрента, которые мы не хотим закачивать:
* либо вручную, снимая с каждого файла галку( скрин №1)
* либо, нажав кнопку "Снять метки (Select None)", сняв сразу со всех файлов(скрин №2)
№1

№2

Оставляем только на нужных нам файлах (файле).

3)Нажать О.К
Добавлена восьмая, заключительная, серия второго сезона
Внимание!
8-я серия заменена.
Причина: более высокое качество.
Перекачайте торрент.
Download / Скачать

Хотите скачать бесплатно? Зарегистрируйтесь на сайте (ссылка на регистрацию). Pirat.ca - самый быстрый торрент трекер в рунете!

Как скачивать  ·   Что такое торрент  ·   Рейтинг и ограничения



Последний раз редактировалось: kugesan (2015-08-13 15:41), всего редактировалось 24 раз(а)

Meverik

Шкипер

Пост 28-Июн-2015 00:18 (спустя 1 год)

[Q] 

Наконец-то продолжение! Ура, товарищи!
[Профиль]  [ЛС] 

kugesan ®

56710

Пост 28-Июн-2015 12:58 (спустя 12 часов)

[Q] 

Приятного просмотра!!!

_________________

В мире две бесконечности: вселенная и человеческая глупость - Альберт Эйнштен
«Можно вытащить человека из грязи, но нельзя вытащить грязь из человека»!
[Профиль]  [ЛС] 

kugesan ®

56710

Пост 12-Авг-2015 13:07 (спустя 1 месяц 14 дней)

[Q] 

Добавлена восьмая, заключительная, серия второго сезона

_________________

В мире две бесконечности: вселенная и человеческая глупость - Альберт Эйнштен
«Можно вытащить человека из грязи, но нельзя вытащить грязь из человека»!
[Профиль]  [ЛС] 

Пост 12-Авг-2015 23:41 (спустя 10 часов)

Топик был перенесен из форума Сериалы в эфире в форум Зарубежные сериалы
Андря
 

kugesan ®

56710

Пост 13-Авг-2015 15:34 (спустя 1 день 2 часа)

[Q] 


Внимание!
8-я серия заменена.
Причина: более высокое качество.
Перекачайте торрент.

_________________

В мире две бесконечности: вселенная и человеческая глупость - Альберт Эйнштен
«Можно вытащить человека из грязи, но нельзя вытащить грязь из человека»!
[Профиль]  [ЛС] 

the_lame

Корсар

Пост 16-Авг-2015 21:14 (спустя 3 дня)

[Q] 

Первый сезон больше впечатлил.
[Профиль]  [ЛС] 
Показать сообщения:    
Ответить на тему

Текущее время: Сегодня 07:05

Часовой пояс: GMT + 4



Вы не можете начинать темы
Вы не можете отвечать на сообщения
Вы не можете редактировать свои сообщения
Вы не можете удалять свои сообщения
Вы не можете голосовать в опросах
Вы не можете прикреплять файлы к сообщениям
Вы не можете скачивать файлы

▼ Вниз