ML
     
  Уважаемый Гость!
Вы можете поддержать проект и зарегистрироваться у наших партнеров - онлайн-стратегия MyLands. При регистрации в игре Вы получите код, который сможете активировать после регистрации на pirat.ca и получить 1000 дублонов.

Ваш код:
fcd618d94adc1456bccbde5047c9cd0930e4ae4d
 
     

Морской Волк / Der SeeWolf / Sea Wolf / Сезон: 1 / Серии: 2 из 2 (Майк Баркер / Mike Barker) [2009 г., драма, приключения, экранизация, BDRip] MVO + Original (Eng) + Sub (Rus)

Ответить на тему
 
Автор
Сообщение

Пост 10-Июн-2014 12:22

[Q] 

AnastasWolf

-Морской Волк / Der SeeWolf / Sea Wolf- Год выпуска: 2009 г.
Производство: Канада , Германия , Big Motion Pictures, Gate Filmproduktion, RHI Entertainment Inc., Tele-München (TMG), Zweites Deutsches Fernsehen (ZDF)
Жанр: драма, приключения, экранизация
Продолжительность: 2 x ~ 01:30:50
Мировая премьера: 4 ноября 2009
Дата выхода DVD: 26 мая 2010, «Кармен Видео»
Перевод: Профессиональный (многоголосый, закадровый)
Оригинальный аудиопоток: английский
Режиссёр: Майк Баркер / Mike Barker-В ролях: Себастьян Кох, Тим Рот, Нив Кэмпбелл, Стивен Кэмпбелл, Эндрю Джексон, Тобиас Шенке, Пол Фото, Хью Томпсон, Мак Файф, Питер МакНейл, Джулиан Ричингс, Скотти Кук, Найджел Беннетт, Уэйн Робсон, Кристофер Шор, Джон Бил...-Описание: Действие фильма происходит в 1893 г. в Тихом океане. В результате несчастного случая известный литературный критик Хэмпфри Ван Вейден оказывается в ледяной воде в открытом море. Его подбирает китобойное судно, однако чудесное спасение оборачивается жестокой борьбой за выживание: хитрый и жестокий капитан корабля по прозвищу Волк Ларсен — настоящее воплощение монстра: ничто не утаится от его взора, а любое неповиновение влечёт суровое наказание. У Хэмпфри остается только один выход: либо погибнуть, либо стать одним из членов команды — настоящим морским волком…
-Качество видео: BDRip
Контейнер: MKV
Видео кодек: AVC
Аудио кодек: DTS, AC3
Видео: 1280x720, ~ 4925 kbps avg, 23.976 fps, 0.223 bit/pixel
Аудио: Russian: DTS, 1509 kbps, 6 ch, 48.0 kHz
Аудио #2: English: AC3, 448 kbps, 6 ch, 48.0 kHz
Cубтитры: русские
Общее
Уникальный идентификатор : 206877394328392635067442823413012404699 (0x9BA32308F45E12BE903A38F094E099DB)
Полное имя : Морской Волк_ Der SeeWolf.2008.[BluRay.720p]\Der SeeWolf.2008.EP01.mkv
Формат : Matroska
Версия формата : Version 2
Размер файла : 4,37 Гбайт
Продолжительность : 1 ч. 30 м.
Общий поток : 6884 Кбит/сек
Дата кодирования : UTC 2010-05-29 08:12:39
Программа кодирования : mkvmerge v3.3.0 ('Language') built on Mar 24 2010 14:59:24
Библиотека кодирования : libebml v0.8.0 + libmatroska v0.9.0
Видео
Идентификатор : 1
Формат : AVC
Формат/Информация : Advanced Video Codec
Профиль формата : [email protected]
Параметр CABAC формата : Да
Параметр ReFrames формата : 7 кадров
Идентификатор кодека : V_MPEG4/ISO/AVC
Продолжительность : 1 ч. 30 м.
Битрейт : 4925 Кбит/сек
Ширина : 1280 пикселей
Высота : 720 пикселей
Соотношение сторон : 16:9
Режим частоты кадров : Постоянный
Частота кадров : 23,976 кадра/сек
Цветовое пространство : YUV
Субдискретизация насыщенности : 4:2:0
Битовая глубина : 8 бит
Тип развёртки : Прогрессивная
Бит/(Пиксели*Кадры) : 0.223
Размер потока : 3,04 Гбайт (70%)
Библиотека кодирования : x264 core 96 r1602 69588a7
Настройки программы : cabac=1 / ref=8 / deblock=1:-3:-3 / analyse=0x3:0x133 / me=umh / subme=9 / psy=1 / psy_rd=1.00:0.00 / mixed_ref=1 / me_range=32 / chroma_me=1 / trellis=2 / 8x8dct=1 / cqm=0 / deadzone=21,11 / fast_pskip=0 / chroma_qp_offset=-2 / threads=12 / sliced_threads=0 / nr=0 / decimate=0 / interlaced=0 / constrained_intra=0 / bframes=8 / b_pyramid=1 / b_adapt=2 / b_bias=0 / direct=3 / weightb=1 / weightp=2 / keyint=250 / keyint_min=25 / scenecut=40 / intra_refresh=0 / rc_lookahead=60 / rc=2pass / mbtree=0 / bitrate=4925 / ratetol=1.0 / qcomp=0.60 / qpmin=10 / qpmax=51 / qpstep=4 / cplxblur=20.0 / qblur=0.5 / vbv_maxrate=50000 / vbv_bufsize=62500 / ip_ratio=1.40 / pb_ratio=1.30 / aq=1:0.80 / nal_hrd=none
Язык : English
Default : Нет
Forced : Нет
Аудио #1
Идентификатор : 2
Формат : DTS
Формат/Информация : Digital Theater Systems
Режим : 16
Параметр Endianness формата : Big
Идентификатор кодека : A_DTS
Продолжительность : 1 ч. 30 м.
Вид битрейта : Постоянный
Битрейт : 1509 Кбит/сек
Каналы : 6 каналов
Расположение каналов : Front: L C R, Side: L R, LFE
Частота : 48,0 КГц
Битовая глубина : 16 бит
Метод сжатия : С потерями
Размер потока : 980 Мбайт (22%)
Заголовок : DTS 5.1 @ 1536 kbps - Многоголосый закадровый
Язык : Russian
Default : Да
Forced : Нет
Аудио #2
Идентификатор : 3
Формат : AC-3
Формат/Информация : Audio Coding 3
Расширение режима : CM (complete main)
Параметр Endianness формата : Big
Идентификатор кодека : A_AC3
Продолжительность : 1 ч. 30 м.
Вид битрейта : Постоянный
Битрейт : 448 Кбит/сек
Каналы : 6 каналов
Расположение каналов : Front: L C R, Side: L R, LFE
Частота : 48,0 КГц
Битовая глубина : 16 бит
Метод сжатия : С потерями
Размер потока : 291 Мбайт (7%)
Заголовок : AC3 5.1 @ 448 kbps
Язык : English
Default : Нет
Forced : Нет
Текст
Идентификатор : 4
Формат : UTF-8
Идентификатор кодека : S_TEXT/UTF8
Идентификатор кодека/Информация : UTF-8 Plain Text
Язык : Russian
Default : Нет
Forced : Нет
Скриншоты:
-
Download / Скачать

Хотите скачать бесплатно? Зарегистрируйтесь на сайте (ссылка на регистрацию). Pirat.ca - самый быстрый торрент трекер в рунете!

Как скачивать  ·   Что такое торрент  ·   Рейтинг и ограничения

Romix

Штурман

Пост 11-Июн-2014 21:53 (спустя 1 день 9 часов)

[Q] 

Спасибо!!! Фильм зачетный погружает в атмосферу правда не для всех кому то может показаться нудноват а мне понравился! Зуб даю...
[Профиль]  [ЛС] 
Показать сообщения:    
Ответить на тему

Текущее время: Сегодня 12:52

Часовой пояс: GMT + 4



Вы не можете начинать темы
Вы не можете отвечать на сообщения
Вы не можете редактировать свои сообщения
Вы не можете удалять свои сообщения
Вы не можете голосовать в опросах
Вы не можете прикреплять файлы к сообщениям
Вы не можете скачивать файлы

▼ Вниз