ML
     
  Уважаемый Гость!
Вы можете поддержать проект и зарегистрироваться у наших партнеров - онлайн-стратегия MyLands. При регистрации в игре Вы получите код, который сможете активировать после регистрации на pirat.ca и получить 1000 дублонов.

Ваш код:
822959f93c00d34653763d5bbf9ee9a7134af98a
 
     

Инспектор Линли расследует / The Inspector Lynley Mysteries / Пилот / Серии: 2 (Ричард Лэкстон / Richard Laxton, Брайан Стернер / Brian Stirner, Олрик Райли / Alrick Riley) [2001 г., драма, криминал, детектив, DVDRip] MVO (ТВЦ) + Original (Eng)

Ответить на тему
 
Автор
Сообщение

Пост 18-Июн-2014 15:15

[Q] 

AnastasWolf

-Инспектор Линли расследует / The Inspector Lynley Mysteries- - Год выпуска: 2001 г.
Производство: Великобритания , BBC Television Centre
Жанр: драма, криминал, детектив
Продолжительность: 2x ~ 01:13:00
Мировая премьера: 12 марта 2001
Перевод: Профессиональный (многоголосый, закадровый) [ТВЦ]
Оригинальный аудиопоток: английский
Режиссёры: Ричард Лэкстон / Richard Laxton, Брайан Стернер / Brian Stirner, Олрик Райли / Alrick Riley-В ролях: Натаниель Паркер, Шэрон Смолл, Лесли Викерадж, Пол Хикки, Шон Паркес, Катрин Расселл, Джун Уотсон, Аль Уивер, Дэвид Бурк-Описание: Детективный сериал о Томасе Линли — инспекторе Скотланд-Ярда, лорде и 8м графе Ашертоне, и его помощнице — сержанте Барбаре Хэйверс, "девушке из народа".
-Качество видео: DVDRip
Контейнер: AVI
Видео кодек: XviD
Аудио кодек: AC3, MP3
Видео: 720x400, ~ 1888 kbps avg, 25 fps, 0.261 bit/pixel
Аудио #1: Russian: AC3, 192 kbps, 2 ch, 48.0 kHz
Аудио #2: English: MP3, 128 kbps, 2 ch, 48.0 kHz
Cубтитры: отсутствуют
Общее
Полное имя : Инспектор Линли расследует.Пилот[2].(2001).avi
Формат : AVI
Формат/Информация : Audio Video Interleave
Размер файла : 1,12 Гбайт
Продолжительность : 1 ч. 12 м.
Общий поток : 2216 Кбит/сек
Программа кодирования : VirtualDubMod 1.5.10.2 (build 2540/release)
Библиотека кодирования : VirtualDubMod build 2540/release
Видео
Идентификатор : 0
Формат : MPEG-4 Visual
Профиль формата : Advanced [email protected]
Параметр BVOP формата : 1
Параметр QPel формата : Нет
Параметр GMC формата : Без точки перехода
Параметр матрицы формата : Выборочная
Идентификатор кодека : XVID
Идентификатор кодека/Подсказка : XviD
Продолжительность : 1 ч. 12 м.
Битрейт : 1882 Кбит/сек
Ширина : 720 пикселей
Высота : 400 пикселей
Соотношение сторон : 16:9
Частота кадров : 25,000 кадров/сек
Цветовое пространство : YUV
Субдискретизация насыщенности : 4:2:0
Битовая глубина : 8 бит
Тип развёртки : Прогрессивная
Метод сжатия : С потерями
Бит/(Пиксели*Кадры) : 0.261
Размер потока : 976 Мбайт (85%)
Библиотека кодирования : XviD 64
Аудио #1
Идентификатор : 1
Формат : AC-3
Формат/Информация : Audio Coding 3
Расширение режима : CM (complete main)
Параметр Endianness формата : Big
Идентификатор кодека : 2000
Продолжительность : 1 ч. 12 м.
Вид битрейта : Постоянный
Битрейт : 192 Кбит/сек
Каналы : 2 канала
Расположение каналов : Front: L R
Частота : 48,0 КГц
Битовая глубина : 16 бит
Метод сжатия : С потерями
Размер потока : 99,6 Мбайт (9%)
Выравнивание : Разделение по промежуткам
Продолжительность промежутка : 40 мс. (1,00 видеокадр)
Время предзагрузки промежутка : 500 мс.
Заголовок : Профессиональный (многоголосый закадровый) ТВЦ
Аудио #2
Идентификатор : 2
Формат : MPEG Audio
Версия формата : Version 1
Профиль формата : Layer 3
Режим : Joint stereo
Расширение режима : MS Stereo
Идентификатор кодека : 55
Идентификатор кодека/Подсказка : MP3
Продолжительность : 1 ч. 12 м.
Вид битрейта : Постоянный
Битрейт : 128 Кбит/сек
Каналы : 2 канала
Частота : 48,0 КГц
Метод сжатия : С потерями
Размер потока : 66,4 Мбайт (6%)
Выравнивание : Разделение по промежуткам
Продолжительность промежутка : 40 мс. (1,00 видеокадр)
Время предзагрузки промежутка : 500 мс.
Заголовок : Английский
Download / Скачать

Хотите скачать бесплатно? Зарегистрируйтесь на сайте (ссылка на регистрацию). Pirat.ca - самый быстрый торрент трекер в рунете!

Как скачивать  ·   Что такое торрент  ·   Рейтинг и ограничения

Показать сообщения:    
Ответить на тему

Текущее время: Сегодня 05:53

Часовой пояс: GMT + 4



Вы не можете начинать темы
Вы не можете отвечать на сообщения
Вы не можете редактировать свои сообщения
Вы не можете удалять свои сообщения
Вы не можете голосовать в опросах
Вы не можете прикреплять файлы к сообщениям
Вы не можете скачивать файлы

▼ Вниз