ML
     
  Уважаемый Гость!
Вы можете поддержать проект и зарегистрироваться у наших партнеров - онлайн-стратегия MyLands. При регистрации в игре Вы получите код, который сможете активировать после регистрации на pirat.ca и получить 1000 дублонов.

Ваш код:
e93cd9e43017f251127f220889864c05934e61c6
 
     

Инспектор Линли расследует / The Inspector Lynley Mysteries / Сезон: 3 / Серии: 1-4 из 4 (Ричард Лэкстон / Richard Laxton, Брайан Стернер / Brian Stirner, Олрик Райли / Alrick Riley) [2004 г., драма, криминал, детектив, DVDRip] MVO + Original (Eng)

Ответить на тему
 
Автор
Сообщение

Пост 18-Июн-2014 18:18

[Q] 

AnastasWolf

-Инспектор Линли расследует / The Inspector Lynley Mysteries- - Год выпуска: 2004 г.
Производство: Великобритания , BBC Television Centre
Жанр: драма, криминал, детектив
Продолжительность: 4x ~ 01:28:00
Мировая премьера: 12 марта 2001
Перевод: Профессиональный (многоголосый, закадровый) [ТВЦ]
Оригинальный аудиопоток: английский
Режиссёры: Ричард Лэкстон / Richard Laxton, Брайан Стернер / Brian Stirner, Олрик Райли / Alrick Riley-В ролях: Натаниель Паркер, Шэрон Смолл, Лесли Викерадж, Пол Хикки, Шон Паркес, Катрин Расселл, Джун Уотсон, Аль Уивер, Дэвид Бурк-Описание: Детективный сериал о Томасе Линли — инспекторе Скотланд-Ярда, лорде и 8м графе Ашертоне, и его помощнице — сержанте Барбаре Хэйверс, "девушке из народа".
-Качество видео: DVDRip
Контейнер: AVI
Видео кодек: XviD
Аудио кодек: AC3, MP3
Видео: 720x400, ~ 1500 kbps avg, 25 fps, 0.210 bit/pixel
Аудио #1: Russian: AC3, 192 kbps, 2 ch, 48.0 kHz
Аудио #2: English: MP3, 128 kbps, 2 ch, 48.0 kHz
Cубтитры: отсутствуют
1. Преследование праведного грешника
2. Предатель памяти
3. Призыв к справедливости
4. Если бы да кабы
Общее
Полное имя : Инспектор Линли расследует.Сезон 3.(2004).avi
Формат : AVI
Формат/Информация : Audio Video Interleave
Размер файла : 1,13 Гбайт
Продолжительность : 1 ч. 27 м.
Общий поток : 1844 Кбит/сек
Программа кодирования : VirtualDubMod 1.5.10.2 (build 2540/release)
Библиотека кодирования : VirtualDubMod build 2540/release
Видео
Идентификатор : 0
Формат : MPEG-4 Visual
Профиль формата : Advanced [email protected]
Параметр BVOP формата : 1
Параметр QPel формата : Нет
Параметр GMC формата : Без точки перехода
Параметр матрицы формата : Выборочная
Идентификатор кодека : XVID
Идентификатор кодека/Подсказка : XviD
Продолжительность : 1 ч. 27 м.
Битрейт : 1509 Кбит/сек
Ширина : 720 пикселей
Высота : 400 пикселей
Соотношение сторон : 16:9
Частота кадров : 25,000 кадров/сек
Цветовое пространство : YUV
Субдискретизация насыщенности : 4:2:0
Битовая глубина : 8 бит
Тип развёртки : Прогрессивная
Метод сжатия : С потерями
Бит/(Пиксели*Кадры) : 0.210
Размер потока : 949 Мбайт (82%)
Библиотека кодирования : XviD 64
Аудио #1
Идентификатор : 1
Формат : AC-3
Формат/Информация : Audio Coding 3
Расширение режима : CM (complete main)
Параметр Endianness формата : Big
Идентификатор кодека : 2000
Продолжительность : 1 ч. 27 м.
Вид битрейта : Постоянный
Битрейт : 192 Кбит/сек
Каналы : 2 канала
Расположение каналов : Front: L R
Частота : 48,0 КГц
Битовая глубина : 16 бит
Метод сжатия : С потерями
Размер потока : 121 Мбайт (10%)
Выравнивание : Разделение по промежуткам
Продолжительность промежутка : 40 мс. (1,00 видеокадр)
Время предзагрузки промежутка : 500 мс.
Заголовок : Профессиональный (многоголосый закадровый) ТВЦ
Аудио #2
Идентификатор : 2
Формат : MPEG Audio
Версия формата : Version 1
Профиль формата : Layer 3
Режим : Joint stereo
Расширение режима : MS Stereo
Идентификатор кодека : 55
Идентификатор кодека/Подсказка : MP3
Продолжительность : 1 ч. 27 м.
Вид битрейта : Постоянный
Битрейт : 128 Кбит/сек
Каналы : 2 канала
Частота : 48,0 КГц
Метод сжатия : С потерями
Размер потока : 80,5 Мбайт (7%)
Выравнивание : Соединение по промежуткам
Продолжительность промежутка : 40 мс. (1,00 видеокадр)
Время предзагрузки промежутка : 504 мс.
Заголовок : Английский
Download / Скачать

Хотите скачать бесплатно? Зарегистрируйтесь на сайте (ссылка на регистрацию). Pirat.ca - самый быстрый торрент трекер в рунете!

Как скачивать  ·   Что такое торрент  ·   Рейтинг и ограничения

jofrei53

Корсар

Пост 11-Июл-2014 22:43 (спустя 23 дня)

[Q] 

Спасибо! С удовольствием смотрим продолжение... Спасибо!!! Лови бочку
[Профиль]  [ЛС] 

oldman1977

Штурман

Пост 03-Июл-2015 12:25 (спустя 11 месяцев 22 дня)

[Q] 

Спасибо всё ок!
Добавлено спустя 52 секунды:
посмотрю с радостью!
[Профиль]  [ЛС] 
Показать сообщения:    
Ответить на тему

Текущее время: Сегодня 04:28

Часовой пояс: GMT + 4



Вы не можете начинать темы
Вы не можете отвечать на сообщения
Вы не можете редактировать свои сообщения
Вы не можете удалять свои сообщения
Вы не можете голосовать в опросах
Вы не можете прикреплять файлы к сообщениям
Вы не можете скачивать файлы

▼ Вниз