ML
     
  Уважаемый Гость!
Вы можете поддержать проект и зарегистрироваться у наших партнеров - онлайн-стратегия MyLands. При регистрации в игре Вы получите код, который сможете активировать после регистрации на pirat.ca и получить 1000 дублонов.

Ваш код:
822959f93c00d34653763d5bbf9ee9a7134af98a
 
     

Инспектор Линли расследует / The Inspector Lynley Mysteries / Сезон: 4 / Серии: 1-8 из 8 (Ричард Лэкстон / Richard Laxton, Брайан Стернер / Brian Stirner, Олрик Райли / Alrick Riley) [2005 г., драма, криминал, детектив, SATRip] MVO

Ответить на тему
 
Автор
Сообщение

Пост 18-Июн-2014 19:49

[Q] 

AnastasWolf

-Инспектор Линли расследует / The Inspector Lynley Mysteries- - Год выпуска: 2005 г.
Производство: Великобритания , BBC Television Centre
Жанр: драма, криминал, детектив
Продолжительность: 8x ~ 00:44:00
Мировая премьера: 12 марта 2001
Перевод: Профессиональный (многоголосый, закадровый) [ТВЦ]
Режиссёры: Ричард Лэкстон / Richard Laxton, Брайан Стернер / Brian Stirner, Олрик Райли / Alrick Riley-В ролях: Натаниель Паркер, Шэрон Смолл, Лесли Викерадж, Пол Хикки, Шон Паркес, Катрин Расселл, Джун Уотсон, Аль Уивер, Дэвид Бурк-Описание: Детективный сериал о Томасе Линли — инспекторе Скотланд-Ярда, лорде и 8м графе Ашертоне, и его помощнице — сержанте Барбаре Хэйверс, "девушке из народа".
Экранизация по произведениям Элизабет Джордж.
-Качество видео: SATRip
Контейнер: AVI
Видео кодек: XviD
Аудио кодек: MP3
Видео: 704x400, ~ 1000 kbps avg, 25 fps, 0.142 bit/pixel
Аудио: 128 kbps, 2 ch, 48.0 kHz
Cубтитры: отсутствуют
1-2 серии - "Золотое сечение" (In Divine Proportion).
Хейверс возвращается к работе после ранения. Полиция расследует убийство молодой женщины в Саффолке, труп которой был обнаружен в её собственном доме. Сразу же очерчен весьма обширный круг подозреваемых: браконьер-философ, муж убитой, любовник и возлюбленный детства. Улик много, но указывают они на разных людей...
3-4 серии - "Под личиной смерти" (In The Guise Of Death).
Линли проводит отпуск в своём поместье в Корнуолле. Когда погибает его сосед, инспектор вынужден принять участие в расследовании.
5-6 серии - "Семена коварства" (The Seed of Cunning).
Новое расследование приводит Линли и Хейверс в Палату Лордов. Линли с горечью убеждается, что они могут найти убийцу, но одолеть коррупцию не в силах.
7-8 серии - "Слово Божие" (The Word of God).
Поиск убийцы нелегального иммигранта, при котором найдены поддельный британский паспорт и арабский манускрипт, приводит Линли к конфликту с иммиграционной службой и ставит под удар его карьеру.
Общее
Полное имя : Инспектор Линли расследует.Сезон 4.(2005).avi
Формат : AVI
Формат/Информация : Audio Video Interleave
Размер файла : 361 Мбайт
Продолжительность : 44 м.
Общий поток : 1138 Кбит/сек
Программа кодирования : VirtualDubMod 1.5.10.2 (build 2540/release)
Библиотека кодирования : VirtualDubMod build 2540/release
Видео
Идентификатор : 0
Формат : MPEG-4 Visual
Профиль формата : Advanced [email protected]
Параметр BVOP формата : 1
Параметр QPel формата : Нет
Параметр GMC формата : Без точки перехода
Параметр матрицы формата : Default (H.263)
Идентификатор кодека : XVID
Идентификатор кодека/Подсказка : XviD
Продолжительность : 44 м.
Битрейт : 1000 Кбит/сек
Ширина : 704 пикселя
Высота : 400 пикселей
Соотношение сторон : 16:9
Частота кадров : 25,000 кадров/сек
Цветовое пространство : YUV
Субдискретизация насыщенности : 4:2:0
Битовая глубина : 8 бит
Тип развёртки : Прогрессивная
Метод сжатия : С потерями
Бит/(Пиксели*Кадры) : 0.142
Размер потока : 317 Мбайт (88%)
Библиотека кодирования : XviD 1.2.0.dev47 (UTC 2006-11-01)
Аудио
Идентификатор : 1
Формат : MPEG Audio
Версия формата : Version 1
Профиль формата : Layer 3
Идентификатор кодека : 55
Идентификатор кодека/Подсказка : MP3
Продолжительность : 44 м.
Вид битрейта : Постоянный
Битрейт : 128 Кбит/сек
Каналы : 2 канала
Частота : 48,0 КГц
Метод сжатия : С потерями
Размер потока : 40,6 Мбайт (11%)
Выравнивание : Соединение по промежуткам
Продолжительность промежутка : 40 мс. (1,00 видеокадр)
Время предзагрузки промежутка : 504 мс.
Библиотека кодирования : LAME3.97
Настройки программы : -m s -V 4 -q 2 -lowpass 17 -b 128
-
Download / Скачать

Хотите скачать бесплатно? Зарегистрируйтесь на сайте (ссылка на регистрацию). Pirat.ca - самый быстрый торрент трекер в рунете!

Как скачивать  ·   Что такое торрент  ·   Рейтинг и ограничения

jofrei53

Корсар

Пост 11-Июл-2014 22:44 (спустя 23 дня)

[Q] 

Спасибо!!! Спасибо!!! Лови бочку
[Профиль]  [ЛС] 
Показать сообщения:    
Ответить на тему

Текущее время: Сегодня 05:56

Часовой пояс: GMT + 4



Вы не можете начинать темы
Вы не можете отвечать на сообщения
Вы не можете редактировать свои сообщения
Вы не можете удалять свои сообщения
Вы не можете голосовать в опросах
Вы не можете прикреплять файлы к сообщениям
Вы не можете скачивать файлы

▼ Вниз