ML
     
  Уважаемый Гость!
Вы можете поддержать проект и зарегистрироваться у наших партнеров - онлайн-стратегия MyLands. При регистрации в игре Вы получите код, который сможете активировать после регистрации на pirat.ca и получить 1000 дублонов.

Ваш код:
47bfc18b89c74e4ae0d974e9b6943639e2bff08e
 
     

Инспектор Линли расследует / The Inspector Lynley Mysteries / Сезон: 5 / Серии: 1-4 из 4 (Ричард Лэкстон / Richard Laxton, ...) [2006 г., драма, криминал, детектив, DVDRip] MVO + Original (Eng)

Ответить на тему
 
Автор
Сообщение

Пост 18-Июн-2014 20:20

[Q] 

AnastasWolf

-Инспектор Линли расследует / The Inspector Lynley Mysteries- - Год выпуска: 2006 г.
Производство: Великобритания , BBC Television Centre
Продолжительность: 4x ~ 01:28:00
Мировая премьера: 12 марта 2001
Перевод: Профессиональный (многоголосый, закадровый) [ТВЦ]
Оригинальный аудиопоток: английский
Режиссёры: Ричард Лэкстон / Richard Laxton, Брайан Стернер / Brian Stirner, Олрик Райли / Alrick Riley-В ролях: Натаниель Паркер, Шэрон Смолл, Лесли Викерадж, Пол Хикки, Шон Паркес, Катрин Расселл, Джун Уотсон, Аль Уивер, Дэвид Бурк-Описание: Детективный сериал о Томасе Линли — инспекторе Скотланд-Ярда, лорде и 8м графе Ашертоне, и его помощнице — сержанте Барбаре Хэйверс, "девушке из народа".
Экранизация по произведениям Элизабет Джордж.
- Качество видео: DVDRip
Контейнер: AVI
Видео кодек: XviD
Аудио кодек: AC3, MP3
Видео: 720x400, ~ 1548 kbps avg, 25 fps, 0.215 bit/pixel
Аудио #1: Russian: AC3, 192 kbps, 2 ch, 48.0 kHz
Аудио #2: English: MP3, 128 kbps, 2 ch, 48.0 kHz
Cубтитры: отсутствуют
1 серия - "По естественным причинам" (Natural Causes).
Хейверс откомандирована в Кент и работает над новым делом с инспектором Фионой Найт. Линли, хотя и отстранен от исполнения обязанностей, помогает им в расследовании.
2 серия - "Вина за совершенное (Преступное деяние)" (One Guilty Deed).
Полицейский осведомитель, готовый дать показания против крупного мафиози, найден мертвым на побережье в Эссексе. Как он там оказался, почему пренебрег защитой полиции, и было ли это заказным убийством?
3 серия - "Китайские стены" (Chinese Walls).
Линли и Хейверс расследуют убийство 23-летней девушки. Когда полиция узнаёт о другом преступлении, совершённом 15 лет назад, расследование принимает новое направление.
4 серия - "В мгновение ока" (In the Blink of an Eye).
В укромном переулке в Сохо убит фотограф-папарацци. Когда Линли просит свою жену Хелен поработать с заблокированной психикой свидетеля, события принимают непредсказуемый оборот.
Общее
Полное имя : Инспектор Линли расследует.Сезон 5.(2006).avi
Формат : AVI
Формат/Информация : Audio Video Interleave
Размер файла : 1,13 Гбайт
Продолжительность : 1 ч. 26 м.
Общий поток : 1883 Кбит/сек
Программа кодирования : VirtualDubMod 1.5.10.2 (build 2540/release)
Библиотека кодирования : VirtualDubMod build 2540/release
Видео
Идентификатор : 0
Формат : MPEG-4 Visual
Профиль формата : Advanced [email protected]
Параметр BVOP формата : 1
Параметр QPel формата : Нет
Параметр GMC формата : Без точки перехода
Параметр матрицы формата : Выборочная
Идентификатор кодека : XVID
Идентификатор кодека/Подсказка : XviD
Продолжительность : 1 ч. 26 м.
Битрейт : 1548 Кбит/сек
Ширина : 720 пикселей
Высота : 400 пикселей
Соотношение сторон : 16:9
Частота кадров : 25,000 кадров/сек
Цветовое пространство : YUV
Субдискретизация насыщенности : 4:2:0
Битовая глубина : 8 бит
Тип развёртки : Прогрессивная
Метод сжатия : С потерями
Бит/(Пиксели*Кадры) : 0.215
Размер потока : 953 Мбайт (82%)
Библиотека кодирования : XviD 64
Аудио #1
Идентификатор : 1
Формат : AC-3
Формат/Информация : Audio Coding 3
Расширение режима : CM (complete main)
Параметр Endianness формата : Big
Идентификатор кодека : 2000
Продолжительность : 1 ч. 26 м.
Вид битрейта : Постоянный
Битрейт : 192 Кбит/сек
Каналы : 2 канала
Расположение каналов : Front: L R
Частота : 48,0 КГц
Битовая глубина : 16 бит
Метод сжатия : С потерями
Размер потока : 118 Мбайт (10%)
Выравнивание : Разделение по промежуткам
Продолжительность промежутка : 40 мс. (1,00 видеокадр)
Время предзагрузки промежутка : 500 мс.
Заголовок : Профессиональный (многоголосый закадровый) ТВЦ
Аудио #2
Идентификатор : 2
Формат : MPEG Audio
Версия формата : Version 1
Профиль формата : Layer 3
Режим : Joint stereo
Расширение режима : MS Stereo
Идентификатор кодека : 55
Идентификатор кодека/Подсказка : MP3
Продолжительность : 1 ч. 26 м.
Вид битрейта : Постоянный
Битрейт : 128 Кбит/сек
Каналы : 2 канала
Частота : 48,0 КГц
Метод сжатия : С потерями
Размер потока : 78,8 Мбайт (7%)
Выравнивание : Соединение по промежуткам
Продолжительность промежутка : 40 мс. (1,00 видеокадр)
Время предзагрузки промежутка : 504 мс.
Заголовок : Английский
-
Download / Скачать

Хотите скачать бесплатно? Зарегистрируйтесь на сайте (ссылка на регистрацию). Pirat.ca - самый быстрый торрент трекер в рунете!

Как скачивать  ·   Что такое торрент  ·   Рейтинг и ограничения



Последний раз редактировалось: AnastasWolf (2014-07-01 05:11), всего редактировалось 2 раз(а)

AnastasWolf ®

3476

Пост 24-Июн-2014 03:34 (спустя 5 дней)

[Q] 

Добавлена 3 серия.

_________________
[Профиль]  [ЛС] 

AnastasWolf ®

3476

Пост 01-Июл-2014 08:08 (спустя 7 дней)

[Q] 

Добавлена 4 серия.

_________________
[Профиль]  [ЛС] 

jofrei53

Корсар

Пост 29-Авг-2014 22:28 (спустя 1 месяц 28 дней)

[Q] 

Спасибо БОЛЬШОЕ! !!Сериал ОТЛИЧНЫЙ! Спасибо!!! Автору респект!!!
[Профиль]  [ЛС] 

AnastasWolf ®

3476

Пост 01-Сен-2014 01:01 (спустя 2 дня 2 часа)

[Q] 

jofrei53, я рада, что понравилось!

_________________
[Профиль]  [ЛС] 

oldman1977

Штурман

Пост 03-Июл-2015 12:12 (спустя 10 месяцев 2 дня)

[Q] 

Спасибо большое!
[Профиль]  [ЛС] 
Показать сообщения:    
Ответить на тему

Текущее время: Сегодня 07:06

Часовой пояс: GMT + 4



Вы не можете начинать темы
Вы не можете отвечать на сообщения
Вы не можете редактировать свои сообщения
Вы не можете удалять свои сообщения
Вы не можете голосовать в опросах
Вы не можете прикреплять файлы к сообщениям
Вы не можете скачивать файлы

▼ Вниз