ML
     
  Уважаемый Гость!
Вы можете поддержать проект и зарегистрироваться у наших партнеров - онлайн-стратегия MyLands. При регистрации в игре Вы получите код, который сможете активировать после регистрации на pirat.ca и получить 1000 дублонов.

Ваш код:
cc3be08b7507661c03e0a2f582d0da3a659ea55a
 
     

Земля волков / Tierra de Lobos / Сезон: 1-3 / Серии: 1-42 из 42 (Хосе Мария Каро / Jose Maria Caro) [2010-2014 г., драма, мелодрама, детектив, WEB-DLRip] MVO (канал SET)

Ответить на тему
 
Автор
Сообщение

Пост 20-Июн-2014 20:20

[Q] 

AnastasWolf

-Земля волков / Tierra de Lobos- - Год выпуска: 2010-2014 г.
Производство: Испания , Telecinco
Жанр: драма, мелодрама, детектив
Продолжительность: 42 x ~ 01:17:00
Мировая премьера: 29 сентября 2010
Перевод: Профессиональный (многоголосый, закадровый) [канал SET]
Режиссёр: Хосе Мария Каро / Jose Maria Caro-В ролях: Алекс Гарсия, Хунио Вальверде, Хуан Фернандес, Мария Кастро, Сильвия Алонсо, Антонио Веласкес, Дафне Фернандес, Адриана Торребехано и др.-Описание: Действие разворачивается в 1878 году. Сеcар и Роман Браво, родные братья, возвращаются на ранчо, где они родились и провели своё детство. Причина возвращения не самая приятная – в Португалии, где они искали счастья и лучшей жизни, произошёл неприятный инцидент с грабежом, в результате которого погибли их товарищи, а им самим пришлось бежать. Поместье, куда они возвращаются, называется Tierra de Lobos. Теперь здесь всем заправляет богатый землевладелец Антонио Лобо, который совсем не рад видеть незваных гостей. Конфликт обостряет то, что Сеcар влюбляется в одну из четырёх прелестных дочерей Лобо.
-Качество видео: WEB-DLRip, HDTVRip
Контейнер: AVI
Видео кодек: XviD
Аудио кодек: AC3, MP3
Видео: 720x400, ~ 1200-1600 kbps avg, 25 fps, 0.166 bit/pixel
Аудио: AC3, 192 kbps, 2 ch, 48.0 kHz (MP3, 128 kbps, 2 ch, 48.0 kHz)
Cубтитры: отсутствуют
Season 1
01. En busca de un nuevo comienzo - В поисках обновления
02. Un pozo para morir - Колодец, чтобы умирать
03. Hasta la ultima gota - До последней капли
04. Luna llena - Полная Луна
05. El descubrimiento de Almudena - Открытие Альмудены
06. Anselmo esta arruinado - Анселмо разрушен
07. Al amanecer - В рассвет
08. Se busca - Ищется
09. Huida - Бегство
10. La feria - Ярмарка
11. El fin de La Quebrada - Конец Ущелья
12. El penal de la torre - Тюрьма башни
13. Si­, quiero - Да, хочу
Season 2
01. Yo te maldigo - Я проклинаю тебя
02. Pueblo tomado - Взятый народ
03. Quiero verte sufrir - Я хочу видеть, как ты страдаешь
04. Traición - Измена
05. La leyenda de las tres llaves - Легенда трех ключей
06. Como hermanos - Как братья
07. El túnel - Туннель
08. Tierra quemada - Сожжённая земля
09. Quebrantahuesos - Ястреб-стервятник
10. Forajidos - Скрывающиеся от правосудия
11. La misma sangre - Та же кровь
12. La viuda - Вдова
13. Una promesa cumplida - Законченное обещание
Season 3
01. Фернандо Браво
02. Возвращение домой
03. Прах к праху
04. Братья по крови
05. Проклятие Лобо
06. Обмен
07. Пожар
08. Гость
09. Сложный выбор
10. Маскарад
11. Хозяйка дома
12. Крест Свинтила
13. Месть народа
14. Возвращение
15. Завещание
16. Земля героев
Общее
Полное имя : Земля волков_Сезон 1-3\Tierra.de.Lobos.S01E01.avi
Формат : AVI
Формат/Информация : Audio Video Interleave
Размер файла : 825 Мбайт
Продолжительность : 1 ч. 22 м.
Общий поток : 1400 Кбит/сек
Библиотека кодирования : VirtualDub build 35491/release
Видео
Идентификатор : 0
Формат : MPEG-4 Visual
Профиль формата : Advanced [email protected]
Параметр BVOP формата : 2
Параметр QPel формата : Нет
Параметр GMC формата : Без точки перехода
Параметр матрицы формата : Default (H.263)
Режим смешивания : Сжатый битовый поток
Идентификатор кодека : XVID
Идентификатор кодека/Подсказка : XviD
Продолжительность : 1 ч. 22 м.
Битрейт : 1199 Кбит/сек
Ширина : 720 пикселей
Высота : 400 пикселей
Соотношение сторон : 16:9
Частота кадров : 25,000 кадров/сек
Цветовое пространство : YUV
Субдискретизация насыщенности : 4:2:0
Битовая глубина : 8 бит
Тип развёртки : Прогрессивная
Метод сжатия : С потерями
Бит/(Пиксели*Кадры) : 0.166
Размер потока : 706 Мбайт (86%)
Библиотека кодирования : XviD 64
Аудио
Идентификатор : 1
Формат : AC-3
Формат/Информация : Audio Coding 3
Расширение режима : CM (complete main)
Параметр Endianness формата : Big
Идентификатор кодека : 2000
Продолжительность : 1 ч. 22 м.
Вид битрейта : Постоянный
Битрейт : 192 Кбит/сек
Каналы : 2 канала
Расположение каналов : Front: L R
Частота : 48,0 КГц
Битовая глубина : 16 бит
Метод сжатия : С потерями
Размер потока : 113 Мбайт (14%)
Выравнивание : Соединение по промежуткам
Продолжительность промежутка : 40 мс. (1,00 видеокадр)
Время предзагрузки промежутка : 512 мс.
-
Download / Скачать

Хотите скачать бесплатно? Зарегистрируйтесь на сайте (ссылка на регистрацию). Pirat.ca - самый быстрый торрент трекер в рунете!

Как скачивать  ·   Что такое торрент  ·   Рейтинг и ограничения



Последний раз редактировалось: AnastasWolf (2014-06-24 03:44), всего редактировалось 3 раз(а)

Resident

45476

Пост 20-Июн-2014 20:44 (спустя 24 минуты)

[Q] 

Вот это размерчик! Ку три раза

_________________

Раздаю с 00:00 до 04:00
[Профиль]  [ЛС] 

Пост 20-Июн-2014 21:00 (спустя 15 минут)

Топик был перенесен из форума Зарубежные сериалы (Трюм) в форум Зарубежные сериалы
kugesan
 

AnastasWolf ®

3476

Пост 20-Июн-2014 21:01 (спустя 16 минут)

[Q] 

549816Вот это размерчик!
Для больших мальчиков!

_________________
[Профиль]  [ЛС] 

AnastasWolf ®

3476

Пост 24-Июн-2014 03:07 (спустя 3 дня)

[Q] 

Добавлены заключительные 3 серии.

_________________
[Профиль]  [ЛС] 

sevensv

Легенда

2598

Пост 24-Июн-2014 18:09 (спустя 15 часов)

[Q] 

Спасибо!!! Лови бочку
[Профиль]  [ЛС] 
Показать сообщения:    
Ответить на тему

Текущее время: Сегодня 05:04

Часовой пояс: GMT + 4



Вы не можете начинать темы
Вы не можете отвечать на сообщения
Вы не можете редактировать свои сообщения
Вы не можете удалять свои сообщения
Вы не можете голосовать в опросах
Вы не можете прикреплять файлы к сообщениям
Вы не можете скачивать файлы

▼ Вниз