ML
     
  Уважаемый Гость!
Вы можете поддержать проект и зарегистрироваться у наших партнеров - онлайн-стратегия MyLands. При регистрации в игре Вы получите код, который сможете активировать после регистрации на pirat.ca и получить 1000 дублонов.

Ваш код:
193c38d0130f05c24de871678ea3ac181461757d
 
     

Доминион / Dominion / Сезон: 1 / Серии: 1-8 из 8 (Скотт Чарльз Стюарт / Scott Charles Stewart) [2014 г., Ужасы, фантастика, фэнтези, боевик, драма, WEB-DLRip] MVO (BaibaKo) + Original (Eng)

Ответить на тему
 
Автор
Сообщение

Пост 21-Июн-2014 22:24

[Q] 

LPPI

- -Доминион / Dominion-Heaven will raise hell on earth- Производство: США, Bold Films, Sony Pictures Television, Universal Cable Productions
Жанр: Ужасы, фантастика, фэнтези, боевик, драма
Год выпуска: 2014 г.
Продолжительность: ~01:06:00
Мировая премьера: 19 июня 2014
Перевод: Профессиональный (многоголосый, закадровый) [BaibaKo]
Оригинальный аудиопоток: английский-Режиссер: Скотт Чарльз Стюарт / Scott Charles Stewart
В ролях: Карл Бьюкс, Алан Дэйл, Кристофер Иган, Крис Фишер, Шивани Гаи, Розалинд Халстэд, Энтони Хэд, Антон Дэвид Джефта, Лэнгли Кирквуд, Роксанна МакКи-Описание: Новый сериал Доминион основан на персонажах фильма Легион. Сюжет развернется спустя много лет после действий фильма. В 25 году после нашей эры армия ангелов, возглавляемая архангелом Гавриилом ведет кровопролитную войну против всего человечества. Один лишь архангел Михаил решает принять сторону людей и выступить против себе подобных. После долгих 25 лет сражений, укрепившиеся города защищают оставшихся в живых и держат последнюю линию обороны. Самый большой среди уцелевших городов — Вега (бывший Лас Вегас). Казалось бы, в этой войне люди должны быть сплочены перед лицом врага. Но в Веге ведется постоянное противостояние двух сторон за контроль над городом и готовится государственный переворот. В это же время молодой человек, непокорный солдат, отправляется в путешествие, в ходе которого он делает потрясающее открытие о том, что он, по всей видимости – спаситель человечества.- -Качество видео: WEB-DLRip
Контейнер: AVI
Видео кодек: XviD
Аудио кодек: AC3
Видео: 720x400 (1.80:1), 23.976 fps, XviD build 65 ~1713 kbps avg, 0.25 bit/pixel
Аудио: 48 kHz, AC3 Dolby Digital, 3/2 (L,C,R,l,r) + LFE ch, ~384 kbps [Rus, MVO]
Аудио #2: 48 kHz, AC3 Dolby Digital, 3/2 (L,C,R,l,r) + LFE ch, ~384 kbps [Eng, Original]
Cубтитры: отсутствуют
01. Pilot / Пилот
02. Godspeed / Ни пуха, ни пера
03. Broken Places / Разрушенные дома
04. The Flood / Потоп
05. Something Borrowed / Что-то, взятое напрокат
06. Black Eyes Blue / Чёрно-голубые глаза
07. Ouroburos / Уроборос
08. Остерегайтесь самых близких / Beware Those Closest to You
General
Complete name : D:\Доминион 1 сезон\Dominion.S01E01.avi
Format : AVI
Format/Info : Audio Video Interleave
File size : 1.16 GiB
Duration : 1h 6mn
Overall bit rate : 2 496 Kbps
Writing application : VirtualDubMod 1.5.10.3 | www.virtualdub-fr.org || (build 2550/release)
Writing library : VirtualDubMod build 2550/release
Video
ID : 0
Format : MPEG-4 Visual
Format profile : Advanced [email protected]
Format settings, BVOP : 2
Format settings, QPel : No
Format settings, GMC : No warppoints
Format settings, Matrix : Default (MPEG)
Codec ID : XVID
Codec ID/Hint : XviD
Duration : 1h 6mn
Bit rate : 1 714 Kbps
Width : 720 pixels
Height : 400 pixels
Display aspect ratio : 16:9
Frame rate : 23.976 fps
Color space : YUV
Chroma subsampling : 4:2:0
Bit depth : 8 bits
Scan type : Progressive
Compression mode : Lossy
Bits/(Pixel*Frame) : 0.248
Stream size : 815 MiB (69%)
Writing library : XviD 65
Audio #1
ID : 1
Format : AC-3
Format/Info : Audio Coding 3
Mode extension : CM (complete main)
Format settings, Endianness : Big
Codec ID : 2000
Duration : 1h 6mn
Bit rate mode : Constant
Bit rate : 384 Kbps
Channel(s) : 6 channels
Channel positions : Front: L C R, Side: L R, LFE
Sampling rate : 48.0 KHz
Bit depth : 16 bits
Compression mode : Lossy
Stream size : 183 MiB (15%)
Alignment : Split accross interleaves
Interleave, duration : 42 ms (1.00 video frame)
Interleave, preload duration : 500 ms
Audio #2
ID : 2
Format : AC-3
Format/Info : Audio Coding 3
Mode extension : CM (complete main)
Format settings, Endianness : Big
Codec ID : 2000
Duration : 1h 6mn
Bit rate mode : Constant
Bit rate : 384 Kbps
Channel(s) : 6 channels
Channel positions : Front: L C R, Side: L R, LFE
Sampling rate : 48.0 KHz
Bit depth : 16 bits
Compression mode : Lossy
Stream size : 183 MiB (15%)
Alignment : Split accross interleaves
Interleave, duration : 42 ms (1.00 video frame)
Interleave, preload duration : 500 ms
при каждом добавлении создётся новый торрент. Чтобы начать докачку новой серии, пользователям необходимо сделать следующее:
(1) остановить скачивание,
(2) удалить старый торрент у себя из клиента (старые серии удалять не надо),
(3) скачать новый торрент и запустить его у себя в клиенте, при этом указать клиенту путь в старую папку куда и должно происходить скачивание новых серий.
Ваш клиент при этом должен произвести хеширование (проверку) старой папки и будет докачивать только те серии которых у вас ещё нет. Старые серии при этом не удаляются, а продолжают раздаваться!
Eсли вы уже удалили старые серии, то предотвратить повторную закачку старых серий можно, отжав галочку в соответствующих местах при запуске нового торрента. (по возможности, желательно не удалять старые серии как можно дольше чтобы релизёр не столько продолжал раздавать старые серии, а смог сконцентрироваться на новых)
/spoiler]
Download / Скачать

Хотите скачать бесплатно? Зарегистрируйтесь на сайте (ссылка на регистрацию). Pirat.ca - самый быстрый торрент трекер в рунете!

Как скачивать  ·   Что такое торрент  ·   Рейтинг и ограничения



Последний раз редактировалось: LPPI (2014-08-10 08:26), всего редактировалось 7 раз(а)

viktor41

Шкипер

Пост 21-Июн-2014 22:40 (спустя 15 минут)

[Q] 

LPPI, Спасибо за новину ! Ждали ... Всем качать!!! Автору респект!!!
[Профиль]  [ЛС] 

Alekc-rus

Морской Волк

Пост 22-Июн-2014 10:48 (спустя 12 часов)

[Q] 

Нус глянем! ct
[Профиль]  [ЛС] 

kmv01

Гроза морей

Пост 23-Июн-2014 09:25 (спустя 22 часа)

[Q] 

"Легион" мне понравился, хороший фильм. Посмотрим продолжение!
[Профиль]  [ЛС] 

дед_Мазай

Корсар

210

Пост 23-Июн-2014 18:18 (спустя 8 часов)

[Q] 

Отличный сериал, без затянутых соплей и со спец эффектами. будем смотреть. всем рекомендую.

_________________
[Профиль]  [ЛС] 

LPPI ®

137537

Пост 28-Июн-2014 16:27 (спустя 4 дня)

[Q] 

Добавлена 2 серия.
[Профиль]  [ЛС] 

jofrei53

Корсар

Пост 28-Июн-2014 21:41 (спустя 5 часов)

[Q] 

Спасибо за новинку! Посмотрим с удовольствием... Спасибо!!! Автору респект!!!
[Профиль]  [ЛС] 

LPPI ®

137537

Пост 05-Июл-2014 11:24 (спустя 6 дней)

[Q] 

Добавлена 3 серия.
[Профиль]  [ЛС] 

jofrei53

Корсар

Пост 05-Июл-2014 11:38 (спустя 13 минут)

[Q] 

Сериал действительно КЛАССНЫЙ!!! Спасибо Всем.
[Профиль]  [ЛС] 

Romix

Штурман

Пост 05-Июл-2014 23:17 (спустя 11 часов)

[Q] 

А мне сериал не понравился. На любителя Автору респект!!!
[Профиль]  [ЛС] 

LPPI ®

137537

Пост 12-Июл-2014 19:49 (спустя 6 дней)

[Q] 

Добавлена 4 серия.
[Профиль]  [ЛС] 

LPPI ®

137537

Пост 19-Июл-2014 09:30 (спустя 6 дней)

[Q] 

Добавлена 5 серия.
[Профиль]  [ЛС] 

printoff

Пост 20-Июл-2014 14:26 (спустя 1 день 4 часа)

[Q] 

Спасибо
Пиратка рулит!
[Профиль]  [ЛС] 

jofrei53

Корсар

Пост 23-Июл-2014 13:32 (спустя 2 дня 23 часа)

[Q] 

Спасибо огромное!!! Дождались... Супер! Лови бочку
[Профиль]  [ЛС] 

LPPI ®

137537

Пост 27-Июл-2014 09:12 (спустя 3 дня)

[Q] 

Добавлена 6 серия.
[Профиль]  [ЛС] 

LPPI ®

137537

Пост 03-Авг-2014 07:54 (спустя 6 дней)

[Q] 

Добавлена 7 серия.
[Профиль]  [ЛС] 

Пост 12-Авг-2014 11:50 (спустя 9 дней)

Топик был перенесен из форума Сериалы в эфире в форум Зарубежные сериалы
kugesan
 

figormonde

Штурман

Пост 19-Июл-2015 20:09 (спустя 11 месяцев 16 дней)

[Q] 

Спасибо огромное!
[Профиль]  [ЛС] 
Показать сообщения:    
Ответить на тему

Текущее время: Сегодня 18:08

Часовой пояс: GMT + 4



Вы не можете начинать темы
Вы не можете отвечать на сообщения
Вы не можете редактировать свои сообщения
Вы не можете удалять свои сообщения
Вы не можете голосовать в опросах
Вы не можете прикреплять файлы к сообщениям
Вы не можете скачивать файлы

▼ Вниз