ML
     
  Уважаемый Гость!
Вы можете поддержать проект и зарегистрироваться у наших партнеров - онлайн-стратегия MyLands. При регистрации в игре Вы получите код, который сможете активировать после регистрации на pirat.ca и получить 1000 дублонов.

Ваш код:
a01a592a88af5f9996a6d1baec61b18a1769954d
 
     

Доминион / Dominion (Сезон 1 / Полный / Серии: 8 из 8) (Скотт Чарльз Стюарт / Scott Charles Stewart) [2014 г., ужасы, фантастика, фэнтези, боевик, драма, ... WEB-DLRip] MVO (Lostfilm)

Ответить на тему
 
Автор
Сообщение

Пост 23-Июн-2014 22:02

[Q] 

kugesan

Доминион / Dominion - Русское название: Доминион
Оригинальное название: Dominion
Страна: США
Год выпуска: 2014
Жанр: ужасы, фантастика, фэнтези, боевик, драма, ...-Озвучка: Студия
Перевод: Многоголосый закадровый, профессиональный-Премьера (мир): 19 июня 2014-Режиссер: Скотт Чарльз Стюарт / Scott Charles Stewart
В главных ролях: Карл Бьюкс, Алан Дэйл, Кристофер Иган, Крис Фишер, Шивани Гаи, Розалинд Халстэд, Энтони Хэд, Антон Дэвид Джефта, Лэнгли Кирквуд, Роксанна МакКи, ...-Описание фильма:
Новый сериал Доминион основан на персонажах фильма Легион. Сюжет развернется спустя много лет после действий фильма. В 25 году после нашей эры армия ангелов, возглавляемая архангелом Гавриилом ведет кровопролитную войну против всего человечества. Один лишь архангел Михаил решает принять сторону людей и выступить против себе подобных. После долгих 25 лет сражений, укрепившиеся города защищают оставшихся в живых и держат последнюю линию обороны. Самый большой среди уцелевших городов — Вега (бывший Лас Вегас). Казалось бы, в этой войне люди должны быть сплочены перед лицом врага. Но в Веге ведется постоянное противостояние двух сторон за контроль над городом и готовится государственный переворот. В это же время молодой человек, непокорный солдат, отправляется в путешествие, в ходе которого он делает потрясающее открытие о том, что он, по всей видимости – спаситель человечества.-Сезон: 1
Серии: 8 из 8 серий
Продолжительность: ~ 01:00:00 мин серия-Качество видео: WEB-DLRip
Формат: AVI
Видеокодек: XviD
Аудиокодек: Mp3
Видео: MPEG-4 Visual at 1328 Кбит/сек, 720 x 400 (1.800) at 23.976 fps, 0.19 Бит/Пиксели
Аудио: MPEG Audio at 192 Кбит/сек, 2 канала, 48,0 КГц |Lostfilm|
- -
  • Пилот (Pilot)
  • С Богом! (Godspeed)
  • Осколок (Broken Places)
  • Потоп (The Flood)
  • Взятое взаймы (Something Borrowed)
  • Иссиня-черные глаза (Black Eyes Blue)
  • Уроборос (Ouroboros)
  • Опасайся своих близких (Beware Those Closest to You)
-
Код:
Общее
Полное имя                               : E:\_Сериалы\_Сериалы\Доминион\Dominion.s01.LostFilm\Dominion.S01E01.rus.LostFilm.TV.avi
Формат                                   : AVI
Формат/Информация                        : Audio Video Interleave
Размер файла                             : 724 Мбайт
Продолжительность                        : 1 ч. 6 м.
Режим общего битрейта                    : Переменный
Общий поток                              : 1528 Кбит/сек
Программа кодирования                    : Nandub v1.0rc2
Библиотека кодирования                   : Nandub build 1853/release
Видео
Идентификатор                            : 0
Формат                                   : MPEG-4 Visual
Профиль формата                          : [email protected]
Параметр BVOP формата                    : Нет
Параметр QPel формата                    : Нет
Параметр GMC формата                     : Без точки перехода
Параметр матрицы формата                 : Default (H.263)
Идентификатор кодека                     : XVID
Идентификатор кодека/Подсказка           : XviD
Продолжительность                        : 1 ч. 6 м.
Битрейт                                  : 1328 Кбит/сек
Ширина                                   : 720 пикселей
Высота                                   : 400 пикселей
Соотношение сторон                       : 16:9
Частота кадров                           : 23,976 кадра/сек
Цветовое пространство                    : YUV
Субдискретизация насыщенности            : 4:2:0
Битовая глубина                          : 8 бит
Тип развёртки                            : Прогрессивная
Метод сжатия                             : С потерями
Бит/(Пиксели*Кадры)                      : 0.192
Размер потока                            : 629 Мбайт (87%)
Библиотека кодирования                   : XviD 1.2.1 (UTC 2008-12-04)
Аудио
Идентификатор                            : 1
Формат                                   : MPEG Audio
Версия формата                           : Version 1
Профиль формата                          : Layer 3
Режим                                    : Joint stereo
Расширение режима                        : MS Stereo
Идентификатор кодека                     : 55
Идентификатор кодека/Подсказка           : MP3
Продолжительность                        : 1 ч. 6 м.
Вид битрейта                             : Переменный
Битрейт                                  : 192 Кбит/сек
Каналы                                   : 2 канала
Частота                                  : 48,0 КГц
Метод сжатия                             : С потерями
Размер потока                            : 89,0 Мбайт (12%)
Выравнивание                             : Соединение по промежуткам
Продолжительность промежутка             : 24  мс. (0,58 видеокадр)
Время предзагрузки промежутка            : 486  мс.
Библиотека кодирования                   : LAME3.97b
Настройки программы                      : -m j -V 4 -q 3 -lowpass 18.6 --abr 192
-
-Скриншоты:
-
-
1. Открыть торрент
2. Снять галки с тех файлов торрента, которые мы не хотим закачивать. Оставляем только на нужных нам файлах (файле).
3. Нажать О.К.
В клиенте utorrent
Инструкция
1) Открыть торрент

2) Снять галки с тех файлов торрента, которые мы не хотим закачивать:
* либо вручную, снимая с каждого файла галку( скрин №1)
* либо, нажав кнопку "Снять метки (Select None)", сняв сразу со всех файлов(скрин №2)
№1

№2

Оставляем только на нужных нам файлах (файле).

3)Нажать О.К
-Добавлена восьмая, заключительная, серия первого сезона
Download / Скачать

Хотите скачать бесплатно? Зарегистрируйтесь на сайте (ссылка на регистрацию). Pirat.ca - самый быстрый торрент трекер в рунете!

Как скачивать  ·   Что такое торрент  ·   Рейтинг и ограничения



Последний раз редактировалось: kugesan (2014-08-12 12:01), всего редактировалось 11 раз(а)

Пост 24-Июн-2014 01:27 (спустя 3 часа)

Топик был перенесен из форума Зарубежные сериалы (Трюм) в форум Сериалы в эфире
erchine
 

olipov

Легенда

Пост 01-Июл-2014 09:25 (спустя 7 дней)

[Q] 

Спасибо!!!
[Профиль]  [ЛС] 

olipov

Легенда

Пост 08-Июл-2014 09:49 (спустя 7 дней)

[Q] 

весьма оперативно )
[Профиль]  [ЛС] 

Securityuser

Флибустьер

Пост 22-Июл-2014 06:08 (спустя 13 дней)

[Q] 

Спасибо за раздачу, посмотрим.
[Профиль]  [ЛС] 

kugesan ®

56691

Пост 10-Авг-2014 23:12 (спустя 19 дней)

[Q] 

Добавлена восьмая серия первого сезона

_________________

В мире две бесконечности: вселенная и человеческая глупость - Альберт Эйнштен
«Можно вытащить человека из грязи, но нельзя вытащить грязь из человека»!
[Профиль]  [ЛС] 

Xanarim

Морской Волк

Пост 11-Авг-2014 01:34 (спустя 2 часа 21 минута)

[Q] 

Спасибо, надо глянуть !COOL!
[Профиль]  [ЛС] 

ss80

Флибустьер

36

Пост 15-Авг-2014 18:58 (спустя 4 дня)

[Q] 

Спасибо!!! Автору респект!!!
[Профиль]  [ЛС] 

olipov

Легенда

Пост 29-Авг-2014 14:00 (спустя 13 дней)

[Q] 

Автору респект!!!
[Профиль]  [ЛС] 
Показать сообщения:    
Ответить на тему

Текущее время: Сегодня 09:45

Часовой пояс: GMT + 4



Вы не можете начинать темы
Вы не можете отвечать на сообщения
Вы не можете редактировать свои сообщения
Вы не можете удалять свои сообщения
Вы не можете голосовать в опросах
Вы не можете прикреплять файлы к сообщениям
Вы не можете скачивать файлы

▼ Вниз