ML
     
  Уважаемый Гость!
Вы можете поддержать проект и зарегистрироваться у наших партнеров - онлайн-стратегия MyLands. При регистрации в игре Вы получите код, который сможете активировать после регистрации на pirat.ca и получить 1000 дублонов.

Ваш код:
c3360d664ceb84802c84b88ed062a5d134e2ba97
 
     

Последний корабль / The Last Ship / Сезон: 1, полный, Серии: 10 из 10 (Джонатан Мостоу / Jonathan Mostow) [2014 г., фантастика, боевик, триллер, драма, WEB-DL, 720p] MVO (LostFilm)

Ответить на тему
 
Автор
Сообщение

Пост 24-Июн-2014 08:08

[Q] 

AnastasWolf

-Последний корабль / The Last Ship- Год выпуска: 2014 г.
Производство: США , Channel Road Productions, Platinum Dunes
Жанр: фантастика, боевик, триллер, драма
Продолжительность: 10x ~ 00:44:00
Мировая премьера: 22 июня 2014
Перевод: Профессиональный (многоголосый, закадровый) [LostFilm]
Авторы сценария: Хэнк Стэйнберг, Стивен Кэйн
Режиссёр: Джонатан Мостоу / Jonathan Mostow-В ролях: Эрик Дэйн, Рона Митра, Адам Болдуин, Чарльз Парнелл, Сэм Спруэл, Трэвис ван Винкл, Марисса Нэйтлинг, Кристина Элмор, Трэйси Майдендорф-Описание: Когда глобальная пандемия уничтожает 80% населения планеты, на плечи экипажа одинокого эсминца ложится задача по спасению человечества от вымирания...
Основано на одноимённой книге Уильяма Бринкли.
- Качество видео: WEB-DL (720p)
Контейнер: MP4
Видео кодек: AVC
Аудио кодек: AAC
Видео: 1280x720, ~ 4000 kbps avg, 23.976 fps
Аудио: 134 kbps, 2 ch, 48.0 kHz
Cубтитры: отсутствуют
01. Шестая стадия / Phase Six
02. Добро пожаловать в Гуантанамо! / Welcome to Gitmo
03. Точный расчёт / Dead Reckoning
04. Последний рывок / We'll Get There
05. Эль Торо / El Toro
06. Карантин / Lockdown
07. S.O.S. / S.O.S.
08. Два матроса идут в бар... / Two Sailors Walk Into a Bar...
09. Испытания / Trials
10. Нет места лучше дома / No Place Like Home
Общее
Полное имя : The.Last.Ship.S01E01.720p.WEB.rus.LostFilm.TV.mp4
Формат : MPEG-4
Профиль формата : Base Media
Идентификатор кодека : isom
Размер файла : 1,64 Гбайт
Продолжительность : 45 м.
Режим общего битрейта : Переменный
Общий поток : 5128 Кбит/сек
Дата записи : 2014
Дата кодирования : UTC 2014-06-23 17:57:06
Дата пометки : UTC 2014-06-23 17:57:06
Программа кодирования : Yamb 2.1.0.0 / LostCoder
Правообладатель : LostFilm.TV (c)
Part_ID : 101
Видео
Идентификатор : 1
Формат : AVC
Формат/Информация : Advanced Video Codec
Профиль формата : [email protected]
Параметр CABAC формата : Нет
Параметр ReFrames формата : 2 кадра
Идентификатор кодека : avc1
Идентификатор кодека/Информация : Advanced Video Coding
Продолжительность : 45 м.
Битрейт : 5022 Кбит/сек
Номинальный битрейт : 4000 Кбит/сек
Максимальный битрейт : 12,9 Мбит/сек
Ширина : 1280 пикселей
Высота : 720 пикселей
Соотношение сторон : 16:9
Режим частоты кадров : Переменный
Частота кадров : 23,976 кадра/сек
Минимальная частота кадров : 23,974 кадра/сек
Максимальная частота кадров : 23,981 кадра/сек
Цветовое пространство : YUV
Субдискретизация насыщенности : 4:2:0
Битовая глубина : 8 бит
Тип развёртки : Прогрессивная
Бит/(Пиксели*Кадры) : 0.227
Размер потока : 1,60 Гбайт (98%)
Язык : English
Дата пометки : UTC 2014-06-23 18:00:40
Основные цвета : BT.709
Характеристики трансфера : BT.709
Коэффициенты матрицы : BT.709
Аудио
Идентификатор : 2
Формат : AAC
Формат/Информация : Advanced Audio Codec
Профиль формата : LC
Идентификатор кодека : 40
Продолжительность : 45 м.
Вид битрейта : Переменный
Битрейт : 100,0 Кбит/сек
Максимальный битрейт : 134 Кбит/сек
Каналы : 2 канала
Расположение каналов : Front: L R
Частота : 48,0 КГц
Метод сжатия : С потерями
Размер потока : 32,7 Мбайт (2%)
Дата кодирования : UTC 2014-06-23 18:00:38
Дата пометки : UTC 2014-06-23 18:00:40
-Добавлена 10я серия
Download / Скачать

Хотите скачать бесплатно? Зарегистрируйтесь на сайте (ссылка на регистрацию). Pirat.ca - самый быстрый торрент трекер в рунете!

Как скачивать  ·   Что такое торрент  ·   Рейтинг и ограничения



Последний раз редактировалось: AnastasWolf (2014-08-27 20:02), всего редактировалось 14 раз(а)

Пост 24-Июн-2014 11:52 (спустя 3 часа)

Топик был перенесен из форума Зарубежные сериалы (Трюм) в форум Сериалы в эфире
kugesan
 

malefik36

Морской Волк

Пост 24-Июн-2014 13:14 (спустя 5 часов)

[Q] 

ахх....люблю массовые вымирания :))) зомби было бы привычней и веселее, но и болезни подойдут :))
[Профиль]  [ЛС] 

Yakovlev_AN

Лоцман

Пост 24-Июн-2014 14:45 (спустя 1 час 30 минут)

[Q] 

Ждал этот сериал, помогу с раздачей
[Профиль]  [ЛС] 

AnastasWolf ®

3476

Пост 24-Июн-2014 14:49 (спустя 4 минуты)

[Q] 

551113Ждал этот сериал, помогу с раздачей
Отлично! Спасибо!

_________________
[Профиль]  [ЛС] 

AnastasWolf ®

3476

Пост 26-Июн-2014 09:29 (спустя 1 день 18 часов)

[Q] 

Считаю, что перевод Kerob'a гораздо лучше, чем у BaibaKo.
*мне больше понравился. >;}

_________________
[Профиль]  [ЛС] 

адлер27

Корсар

Пост 26-Июн-2014 15:07 (спустя 5 часов)

[Q] 

кто смотрел, как фильмец7

_________________
[Профиль]  [ЛС] 

AnastasWolf ®

3476

Пост 03-Июл-2014 08:18 (спустя 6 дней)

[Q] 

Добавлена 2 серия. Любительский перевод заменён на LostFilm.

_________________
[Профиль]  [ЛС] 

printoff

Пост 09-Июл-2014 17:29 (спустя 6 дней)

[Q] 

Спасибо
!COOL!
[Профиль]  [ЛС] 

dronofill

Корсар

Пост 23-Июл-2014 17:47 (спустя 14 дней)

[Q] 

кто смотрел?КАК сюжет7

_________________
Мира и добра)
[Профиль]  [ЛС] 

Possumt

Лоцман

Пост 26-Июл-2014 23:16 (спустя 3 дня)

[Q] 

Красиво снято, ощущения театральной сцены вообще нет, звук хороший, сам перевод неплох, актерская игра вполне приемлемая. То есть посмотреть вообще без напряга можно. Портит только запредельное количество клюквы. Чего стоит один только отечественный контр-(или вице-, не помню точно)адмирал Северного флота, командующий обычным кораблем, *постоянно* пьющий водку, в качестве аргумента в споре пристреливающий своего офицера (спойлер не страшный, ибо несущественно), и позволяющий крутоскулой синеглазой американской бестии поиметь себя как первокурсника морского училища
[Профиль]  [ЛС] 

C0y0te

1426

Пост 20-Авг-2014 14:25 (спустя 24 дня)

[Q] 

Автору респект!!! Спасибо!!!
[Профиль]  [ЛС] 

Пост 27-Авг-2014 20:34 (спустя 7 дней)

Топик был перенесен из форума Сериалы в эфире в форум Зарубежные сериалы
kugesan
 

AnastasWolf ®

3476

Пост 28-Авг-2014 14:00 (спустя 7 дней)

[Q] 

Весь сезон думала, что больше одного смотреть и, соответственно, раздавать не буду. Но с 10й серии начинается самое интересное! ;)

_________________
[Профиль]  [ЛС] 
Показать сообщения:    
Ответить на тему

Текущее время: Сегодня 10:03

Часовой пояс: GMT + 4



Вы не можете начинать темы
Вы не можете отвечать на сообщения
Вы не можете редактировать свои сообщения
Вы не можете удалять свои сообщения
Вы не можете голосовать в опросах
Вы не можете прикреплять файлы к сообщениям
Вы не можете скачивать файлы

▼ Вниз