ML
     
  Уважаемый Гость!
Вы можете поддержать проект и зарегистрироваться у наших партнеров - онлайн-стратегия MyLands. При регистрации в игре Вы получите код, который сможете активировать после регистрации на pirat.ca и получить 1000 дублонов.

Ваш код:
8b752b428cf60a012c159dcae592cd1392170115
 
     

Тиран / Tyrant / Сезон: 1, полный, Серии: 10 из 10 (Дэвид Йэтс / David Yates) [2014 г., драма, WEB-DLRip] MVO (BaibaKo) + Original (Eng)

Ответить на тему
 
Автор
Сообщение

Пост 27-Июн-2014 13:33

[Q] 

AnastasWolf

-Тиран / Tyrant- Год выпуска: 2014 г.
Производство: США , Fox 21, Keshet Broadcasting, Teakwood Lane Productions
Жанр: драма
Продолжительность: 10x ~ 00:57:00
Мировая премьера: 24 июня 2014
Перевод: Профессиональный (многоголосый, закадровый) [BaibaKo]
Оригинальный аудиопоток: английский
Режиссёр: Дэвид Йэтс / David Yates-В ролях: Ашраф Бахром, Фарес Фарес, Моран Атиас, Ноа Силвер, Энн Уинтерс, Салим Доу, Мехди Дехби, Элис Крэйг, Джастин Кирк-Описание: Сюжет разворачивается в самой политически неустойчивой и взрывоопасной точке нашего мира — на Ближнем Востоке, где, как известно, сосредоточено множество военных конфликтов (от гражданской войны в Сирии до бесконечного арабо-израильского противостояния). Главный герой Бассам «Барри» Аль Фаед, сын ближневосточного диктатора, разумеется, вымышленного арабского государства Балади (хотя особенно внимательные зрители узнают в кадре ландшафты Израиля). Он жил своей жизнью в Лос-Анджелесе около 20 лет, женился на американке.
Но судьба заставила его вернуться на родную землю...
- *8.0 *7.8Качество видео: WEB-DLRip
Контейнер: AVI
Видео кодек: XviD
Аудио кодек: MP3
Видео: 720x400, ~ 1400 kbps avg, 23.976 fps, 0.203 bit/pixel
Аудио #1: Russian: 192 kbps, 2 ch, 48.0 kHz
Аудио #2: English: 192 kbps, 2 ch, 48.0 kHz
Cубтитры: отсутствуют
01. Пилот
02. Чрезвычайное положение
03. Охранник моего брата
04. Грехи отца нашего
05. Аве Мария
06. То, что нужно миру
07. Профилактическая медицина
08. Знакомьтесь, новый босс
09. Газовая лампа
10. На рыбалку
Общее
Полное имя : Tyrant.s01e01.[WEB-DLRip].avi
Формат : AVI
Формат/Информация : Audio Video Interleave
Размер файла : 735 Мбайт
Продолжительность : 57 м.
Общий поток : 1798 Кбит/сек
Программа кодирования : VirtualDubMod 1.5.10.3 | (build 2550/release)
Библиотека кодирования : VirtualDubMod build 2550/release
Видео
Идентификатор : 0
Формат : MPEG-4 Visual
Профиль формата : Advanced [email protected]
Параметр BVOP формата : 2
Параметр QPel формата : Нет
Параметр GMC формата : Без точки перехода
Параметр матрицы формата : Default (H.263)
Идентификатор кодека : XVID
Идентификатор кодека/Подсказка : XviD
Продолжительность : 57 м.
Битрейт : 1400 Кбит/сек
Ширина : 720 пикселей
Высота : 400 пикселей
Соотношение сторон : 16:9
Частота кадров : 23,976 кадра/сек
Цветовое пространство : YUV
Субдискретизация насыщенности : 4:2:0
Битовая глубина : 8 бит
Тип развёртки : Прогрессивная
Метод сжатия : С потерями
Бит/(Пиксели*Кадры) : 0.203
Размер потока : 572 Мбайт (78%)
Библиотека кодирования : XviD 73
Аудио #1
Идентификатор : 1
Формат : MPEG Audio
Версия формата : Version 1
Профиль формата : Layer 3
Идентификатор кодека : 55
Идентификатор кодека/Подсказка : MP3
Продолжительность : 57 м.
Вид битрейта : Постоянный
Битрейт : 192 Кбит/сек
Каналы : 2 канала
Частота : 48,0 КГц
Метод сжатия : С потерями
Размер потока : 78,5 Мбайт (11%)
Выравнивание : Соединение по промежуткам
Продолжительность промежутка : 42 мс. (1,00 видеокадр)
Время предзагрузки промежутка : 504 мс.
Библиотека кодирования : LAME3.99r
Настройки программы : -m s -V 4 -q 2 -lowpass 18.6 -b 192
Аудио #2
Идентификатор : 2
Формат : MPEG Audio
Версия формата : Version 1
Профиль формата : Layer 3
Идентификатор кодека : 55
Идентификатор кодека/Подсказка : MP3
Продолжительность : 57 м.
Вид битрейта : Постоянный
Битрейт : 192 Кбит/сек
Каналы : 2 канала
Частота : 48,0 КГц
Метод сжатия : С потерями
Размер потока : 78,5 Мбайт (11%)
Выравнивание : Соединение по промежуткам
Продолжительность промежутка : 42 мс. (1,00 видеокадр)
Время предзагрузки промежутка : 504 мс.
Библиотека кодирования : LAME3.99r
Настройки программы : -m s -V 4 -q 2 -lowpass 18.6 -b 192
Скриншоты:
-Добавлена 10я серия
Download / Скачать

Хотите скачать бесплатно? Зарегистрируйтесь на сайте (ссылка на регистрацию). Pirat.ca - самый быстрый торрент трекер в рунете!

Как скачивать  ·   Что такое торрент  ·   Рейтинг и ограничения



Последний раз редактировалось: AnastasWolf (2014-08-30 10:10), всего редактировалось 15 раз(а)

Пост 27-Июн-2014 17:45 (спустя 4 часа)

Топик был перенесен из форума Зарубежные сериалы (Трюм) в форум Сериалы в эфире
kugesan
 

iden.cccp

Юнга

Пост 10-Июл-2014 15:00 (спустя 13 дней)

[Q] 

спасибо Спасибо!!!
[Профиль]  [ЛС] 

old_boot

Лоцман

Пост 11-Июл-2014 08:53 (спустя 17 часов)

[Q] 

попробуемс Спасибо!!!
[Профиль]  [ЛС] 

Пост 30-Авг-2014 15:08 (спустя 1 месяц 19 дней)

Топик был перенесен из форума Сериалы в эфире в форум Зарубежные сериалы
kugesan
 
Показать сообщения:    
Ответить на тему

Текущее время: Сегодня 06:24

Часовой пояс: GMT + 4



Вы не можете начинать темы
Вы не можете отвечать на сообщения
Вы не можете редактировать свои сообщения
Вы не можете удалять свои сообщения
Вы не можете голосовать в опросах
Вы не можете прикреплять файлы к сообщениям
Вы не можете скачивать файлы

▼ Вниз