ML
     
  Уважаемый Гость!
Вы можете поддержать проект и зарегистрироваться у наших партнеров - онлайн-стратегия MyLands. При регистрации в игре Вы получите код, который сможете активировать после регистрации на pirat.ca и получить 1000 дублонов.

Ваш код:
5f4e94775bc0501caff7b254e79328d304c817d9
 
     

Тиран / Tyrant / Сезон: 1, полный, Серии: 10 из 10 (Дэвид Йэтс / David Yates) [2014 г., драма, WEB-DLRip, 720p] MVO (BaibaKo) + Original (Eng)

Ответить на тему
 
Автор
Сообщение

Пост 03-Июл-2014 15:55

[Q] 

AnastasWolf

-Тиран / Tyrant- Год выпуска: 2014 г.
Производство: США , Fox 21, Keshet Broadcasting, Teakwood Lane Productions
Жанр: драма
Продолжительность: 10x ~ 00:57:00
Мировая премьера: 24 июня 2014
Перевод: Профессиональный (многоголосый, закадровый) [BaibaKo]
Оригинальный аудиопоток: английский
Режиссёр: Дэвид Йэтс / David Yates-В ролях: Ашраф Бахром, Фарес Фарес, Моран Атиас, Ноа Силвер, Энн Уинтерс, Салим Доу, Мехди Дехби, Элис Крэйг, Джастин Кирк-Описание: Сюжет разворачивается в самой политически неустойчивой и взрывоопасной точке нашего мира — на Ближнем Востоке, где, как известно, сосредоточено множество военных конфликтов (от гражданской войны в Сирии до бесконечного арабо-израильского противостояния). Главный герой Бассам «Барри» Аль Фаед, сын ближневосточного диктатора, разумеется, вымышленного арабского государства Балади (хотя особенно внимательные зрители узнают в кадре ландшафты Израиля). Он жил своей жизнью в Лос-Анджелесе около 20 лет, женился на американке.
Но судьба заставила его вернуться на родную землю...
- *8.0 *8.1Качество видео: WEB-DLRip (720p)
Контейнер: MKV
Видео кодек: AVC
Аудио кодек: AC3
Видео: 1280x720, ~ 3888 kbps avg, 23.976 fps
Аудио #1: Russian: 384 kbps, 6 ch, 48.0 kHz
Аудио #2: English: 384 kbps, 6 ch, 48.0 kHz
Cубтитры: отсутствуют
01. Пилот
02. Чрезвычайное положение
03. Охранник моего брата
04. Грехи отца нашего
05. Аве Мария
06. То, что нужно миру
07. Профилактическая медицина
08. Знакомьтесь, новый босс
09. Газовая лампа
10. На рыбалку
Общее
Уникальный идентификатор : 251673268687674749802846714137405392823 (0xBD568228E90584DDBDABF50DD5C187B7)
Полное имя : Tyrant.s01e01.HD720p.WEB-DL.Rus.Eng.BaibaKo.tv.mkv
Формат : Matroska
Версия формата : Version 4 / Version 2
Размер файла : 1,90 Гбайт
Продолжительность : 57 м.
Общий поток : 4752 Кбит/сек
Дата кодирования : UTC 2014-06-26 00:52:56
Программа кодирования : mkvmerge v6.9.1 ('Blue Panther') 64bit built on Apr 18 2014 18:23:38
Библиотека кодирования : libebml v1.3.0 + libmatroska v1.4.1
Видео
Идентификатор : 1
Формат : AVC
Формат/Информация : Advanced Video Codec
Профиль формата : [email protected]
Параметр CABAC формата : Нет
Параметр ReFrames формата : 2 кадра
Идентификатор кодека : V_MPEG4/ISO/AVC
Продолжительность : 57 м.
Битрейт : 3889 Кбит/сек
Ширина : 1280 пикселей
Высота : 720 пикселей
Соотношение сторон : 16:9
Режим частоты кадров : Постоянный
Частота кадров : 23,976 кадра/сек
Цветовое пространство : YUV
Субдискретизация насыщенности : 4:2:0
Битовая глубина : 8 бит
Тип развёртки : Прогрессивная
Бит/(Пиксели*Кадры) : 0.176
Размер потока : 1,55 Гбайт (82%)
Язык : English
Default : Да
Forced : Нет
Основные цвета : BT.709
Характеристики трансфера : BT.709
Коэффициенты матрицы : BT.709
Аудио #1
Идентификатор : 2
Формат : AC-3
Формат/Информация : Audio Coding 3
Расширение режима : CM (complete main)
Параметр Endianness формата : Big
Идентификатор кодека : A_AC3
Продолжительность : 57 м.
Вид битрейта : Постоянный
Битрейт : 384 Кбит/сек
Каналы : 6 каналов
Расположение каналов : Front: L C R, Side: L R, LFE
Частота : 48,0 КГц
Битовая глубина : 16 бит
Метод сжатия : С потерями
Задержка видео : 29 мс.
Размер потока : 157 Мбайт (8%)
Заголовок : Rus BaibaKo.tv DD5.1
Язык : Russian
Default : Да
Forced : Нет
Аудио #2
Идентификатор : 3
Формат : AC-3
Формат/Информация : Audio Coding 3
Расширение режима : CM (complete main)
Параметр Endianness формата : Big
Идентификатор кодека : A_AC3
Продолжительность : 57 м.
Вид битрейта : Постоянный
Битрейт : 384 Кбит/сек
Каналы : 6 каналов
Расположение каналов : Front: L C R, Side: L R, LFE
Частота : 48,0 КГц
Битовая глубина : 16 бит
Метод сжатия : С потерями
Задержка видео : 29 мс.
Размер потока : 157 Мбайт (8%)
Заголовок : Original DD5.1
Язык : English
Default : Нет
Forced : Нет
Скриншоты:
-Добавлена 10я серия
Download / Скачать

Хотите скачать бесплатно? Зарегистрируйтесь на сайте (ссылка на регистрацию). Pirat.ca - самый быстрый торрент трекер в рунете!

Как скачивать  ·   Что такое торрент  ·   Рейтинг и ограничения



Последний раз редактировалось: AnastasWolf (2014-09-01 00:33), всего редактировалось 8 раз(а)

fleshiblood

Морской Волк

Пост 05-Июл-2014 13:06 (спустя 1 день 21 час)

[Q] 

Супер! Спасибо Лови бочку

_________________
result/3169756058] [/URL]
http://ellkor.ru/
[Профиль]  [ЛС] 

Пост 28-Янв-2015 00:23 (спустя 6 месяцев 22 дня)

Топик был перенесен из форума Сериалы в эфире в форум Зарубежные сериалы
Андря
 
Показать сообщения:    
Ответить на тему

Текущее время: Сегодня 15:38

Часовой пояс: GMT + 4



Вы не можете начинать темы
Вы не можете отвечать на сообщения
Вы не можете редактировать свои сообщения
Вы не можете удалять свои сообщения
Вы не можете голосовать в опросах
Вы не можете прикреплять файлы к сообщениям
Вы не можете скачивать файлы

▼ Вниз