ML
     
  Уважаемый Гость!
Вы можете поддержать проект и зарегистрироваться у наших партнеров - онлайн-стратегия MyLands. При регистрации в игре Вы получите код, который сможете активировать после регистрации на pirat.ca и получить 1000 дублонов.

Ваш код:
9cfe162481db953a6549f32179d7b3900b8b8643
 
     

Правительство / Borgen / Сезон: 1,2,3 / Серии: 1-30 из 30 (Луис Фридберг / Louise Friedberg, Йеспер В. Нильсен / Jesper W. Nielsen, ...) [2010-2013 г., драма, триллер, HDRip] MVO + Original (Dan)

Ответить на тему
 
Автор
Сообщение

Пост 09-Июл-2014 06:06

[Q] 

AnastasWolf

-Правительство / Borgen- Год выпуска: 2010-2013 г.
Производство: Дания , DR Fiktion
Жанр: драма, триллер
Продолжительность: 30x ~ 00:58:00
Мировая премьера: 26 сентября 2010
Перевод: Профессиональный (многоголосый, закадровый)
Оригинальный аудиопоток: датский
Режиссёры: Луис Фридберг / Louise Friedberg, Йеспер В. Нильсен / Jesper W. Nielsen, ...-В ролях: Сидсе Бабетт Кнудсен, Биргитте Йорт Серенсен, Йохан Филип Асбек, Микаэль Биркиа, Фрея Фримен, Ларс Кнутзон, Бенедикте Хансен, Сорен Спененг, Питер Мюгинд, Ларс Бригманн-Описание: Правительство - датский политический триллер от продюсеров "Убийства" (Forbrydelsen). Лидер умеренной партии Биргитте Нюборг становится первой женщиной премьер-министром Дании. Во время предвыборной кампании она ошарашила своего советника и политтехнолога Каспера Юла тем, что отказалась обнародовать компромат на премьера, одела не то платье на теледебаты, полностью отошла от заготовленной речи и... победила! Далее Биргитте предстоит самое сложное - удержать власть в водовороте интриг, политических торгов, манипуляций в СМИ, и при этом остаться честной и полностью следовать своим принципам.
- * 8.5 * 8.171

2010г. - Prix Italia - Лучшая телевизионная драма
2011г. - «Золотая нимфа» Monte-Carlo TV Festival - Лучшая актриса
2011г. - Biarritz International Festival of Audiovisual Programming - Лучшая музыка
2012г. - BAFTA Awards - Лучший иностранный сериал
Год выпуска: 2010 г.
Перевод: Профессиональный (многоголосый, закадровый) [8tv]
Оригинальный аудиопоток: датский

Качество видео: HDRip
Контейнер: AVI
Видео кодек: XviD
Аудио кодек: AC3
Видео: 720x320 (2.25:1), ~ 1280 kbps avg, 25 fps, 0.223 bit/pixel
Аудио #1: русский: 192 kbps, 2 ch, 48.0 kHz
Аудио #2: датский: 192 kbps, 2 ch, 48.0 kHz
Cубтитры: отсутствуют
01. Добродетель находится посередине / Dyden i midten
02. Считаем до 90 / Tael til 90
03. Искусство возможного / Det muliges kunst
04. 100 дней / Hundrede dage
05. Мужчины, которые любят женщин / Maend der elsker kvinder
06. Государственный визит / Statsbesøg
07. Не вижу, не слышу, не говорю / Ikke se, ikke høre, ikke tale
08. Затишье / Agurketid
09. Разделяй и властвуй / Del og hersk
10. Первый вторник октября / Første tirsdag i oktober
Общее
Полное имя : Правительство_ Borgen.2010. Сезон 1\Borgen.s01e01.HDRip.Rus.Dan.8tv.avi
Формат : AVI
Формат/Информация : Audio Video Interleave
Размер файла : 701 Мбайт
Продолжительность : 58 м.
Общий поток : 1681 Кбит/сек
Программа кодирования : VirtualDubMod 1.5.10.3 | (build 2550/release)
Библиотека кодирования : VirtualDubMod build 2550/release
Видео
Идентификатор : 0
Формат : MPEG-4 Visual
Профиль формата : Advanced [email protected]
Параметр BVOP формата : 2
Параметр QPel формата : Нет
Параметр GMC формата : Без точки перехода
Параметр матрицы формата : Default (MPEG)
Идентификатор кодека : XVID
Идентификатор кодека/Подсказка : XviD
Продолжительность : 58 м.
Битрейт : 1283 Кбит/сек
Ширина : 720 пикселей
Высота : 320 пикселей
Соотношение сторон : 2,25:1
Частота кадров : 25,000 кадров/сек
Цветовое пространство : YUV
Субдискретизация насыщенности : 4:2:0
Битовая глубина : 8 бит
Тип развёртки : Прогрессивная
Метод сжатия : С потерями
Бит/(Пиксели*Кадры) : 0.223
Размер потока : 535 Мбайт (76%)
Библиотека кодирования : XviD 1.2.1 (UTC 2008-12-04)
Аудио #1
Идентификатор : 1
Формат : AC-3
Формат/Информация : Audio Coding 3
Расширение режима : CM (complete main)
Параметр Endianness формата : Big
Идентификатор кодека : 2000
Продолжительность : 58 м.
Вид битрейта : Постоянный
Битрейт : 192 Кбит/сек
Каналы : 2 канала
Расположение каналов : Front: L R
Частота : 48,0 КГц
Битовая глубина : 16 бит
Метод сжатия : С потерями
Размер потока : 80,0 Мбайт (11%)
Выравнивание : Разделение по промежуткам
Продолжительность промежутка : 40 мс. (1,00 видеокадр)
Время предзагрузки промежутка : 500 мс.
Аудио #2
Идентификатор : 2
Формат : AC-3
Формат/Информация : Audio Coding 3
Расширение режима : CM (complete main)
Параметр Endianness формата : Big
Идентификатор кодека : 2000
Продолжительность : 58 м.
Вид битрейта : Постоянный
Битрейт : 192 Кбит/сек
Каналы : 2 канала
Расположение каналов : Front: L R
Частота : 48,0 КГц
Битовая глубина : 16 бит
Метод сжатия : С потерями
Размер потока : 80,0 Мбайт (11%)
Выравнивание : Разделение по промежуткам
Продолжительность промежутка : 40 мс. (1,00 видеокадр)
Время предзагрузки промежутка : 500 мс.
Год выпуска: 2011 г.
Перевод: Профессиональный (многоголосый, закадровый) [8tv]
Оригинальный аудиопоток: датский

Качество видео: HDRip
Контейнер: AVI
Видео кодек: XviD
Аудио кодек: AC3
Видео: 720x320 (2.25:1), ~ 1280 kbps avg, 25 fps, 0.221 bit/pixel
Аудио #1: русский: 192 kbps, 2 ch, 48.0 kHz
Аудио #2: датский: 192 kbps, 2 ch, 48.0 kHz
Cубтитры: русские (.ass) к 6-й серии, на непереведённые места

01. 89.000 детей / 89.000 børn
02. Из Брюсселя крик никто не услышит / I Bruxelles kan ingen høre dig skrige
03. Последний рабочий / Den sidste arbejder
04. Боевая готовность / Op til kamp
05. Посади дерево / Plant et træ
06. Мы и они / Dem & Os
07. То, что потеряно во внутренней политике, надо наверстать во внешней - часть 1 / Hvad Indad Tabes, Skal Udad Vindes - Del I
08. То, что потеряно во внутренней политике, надо наверстать во внешней - часть 2 / Hvad Indad Tabes, Skal Udad Vindes - Del II
09. Святость частной жизни / Privatlivets fred
10. Чрезвычайная ситуация / En bemӕrkning af sӕrlig karakter
Общее
Полное имя : Правительство_ Borgen.2011. Сезон 2\Borgen.s02e01.HDRip.Rus.Dan.8tv.avi
Формат : AVI
Формат/Информация : Audio Video Interleave
Размер файла : 700 Мбайт
Продолжительность : 58 м.
Общий поток : 1673 Кбит/сек
Программа кодирования : VirtualDubMod 1.5.10.3 | (build 2550/release)
Библиотека кодирования : VirtualDubMod build 2550/release
Видео
Идентификатор : 0
Формат : MPEG-4 Visual
Профиль формата : Advanced [email protected]
Параметр BVOP формата : 2
Параметр QPel формата : Нет
Параметр GMC формата : Без точки перехода
Параметр матрицы формата : Default (MPEG)
Идентификатор кодека : XVID
Идентификатор кодека/Подсказка : XviD
Продолжительность : 58 м.
Битрейт : 1275 Кбит/сек
Ширина : 720 пикселей
Высота : 320 пикселей
Соотношение сторон : 2,25:1
Частота кадров : 25,000 кадров/сек
Цветовое пространство : YUV
Субдискретизация насыщенности : 4:2:0
Битовая глубина : 8 бит
Тип развёртки : Прогрессивная
Метод сжатия : С потерями
Бит/(Пиксели*Кадры) : 0.221
Размер потока : 533 Мбайт (76%)
Библиотека кодирования : XviD 1.2.1 (UTC 2008-12-04)
Аудио #1
Идентификатор : 1
Формат : AC-3
Формат/Информация : Audio Coding 3
Расширение режима : CM (complete main)
Параметр Endianness формата : Big
Идентификатор кодека : 2000
Продолжительность : 58 м.
Вид битрейта : Постоянный
Битрейт : 192 Кбит/сек
Каналы : 2 канала
Расположение каналов : Front: L R
Частота : 48,0 КГц
Битовая глубина : 16 бит
Метод сжатия : С потерями
Размер потока : 80,3 Мбайт (11%)
Выравнивание : Разделение по промежуткам
Продолжительность промежутка : 40 мс. (1,00 видеокадр)
Время предзагрузки промежутка : 500 мс.
Аудио #2
Идентификатор : 2
Формат : AC-3
Формат/Информация : Audio Coding 3
Расширение режима : CM (complete main)
Параметр Endianness формата : Big
Идентификатор кодека : 2000
Продолжительность : 58 м.
Вид битрейта : Постоянный
Битрейт : 192 Кбит/сек
Каналы : 2 канала
Расположение каналов : Front: L R
Частота : 48,0 КГц
Битовая глубина : 16 бит
Метод сжатия : С потерями
Размер потока : 80,3 Мбайт (11%)
Выравнивание : Разделение по промежуткам
Продолжительность промежутка : 40 мс. (1,00 видеокадр)
Время предзагрузки промежутка : 500 мс.
Год выпуска: 2013 г.
Перевод: Профессиональный (многоголосый, закадровый) [BaibaKo]
Оригинальный аудиопоток: датский

Качество видео: HDRip
Контейнер: AVI
Видео кодек: XviD
Аудио кодек: MP3
Видео: 704x320 (2.2:1), ~ 1300 kbps avg, 25 fps, 0.235 bit/pixel
Аудио #1: русский: 192 kbps, 2 ch, 48.0 kHz
Аудио #2: датский: 192 kbps, 2 ch, 48.0 kHz
Cубтитры: отсутствуют

01. Дания - моя родина / I Danmark er jeg født
02. Правовая страна / Med lov skal land bygges
03. Правильный оттенок коричневого / Den rigtige nuance af brun
04. Одним противником меньше / Den enes dd
05. Не прелюбодействуй / Du skal ikke bedrive hor
06. Наследие прошлого / Fortidens snner
07. Падение / Faldet
08. Если никогда не передумаешь / Man har et standpunkt
09. Разум и чувства / Fornuft og følelse
10. Выбор / Valget
Общее
Полное имя : Правительство_ Borgen.2013. Сезон 3\Borgen.s03e01.HDRip.Rus.Dan.BaibaKo.avi
Формат : AVI
Формат/Информация : Audio Video Interleave
Размер файла : 700 Мбайт
Продолжительность : 56 м.
Общий поток : 1720 Кбит/сек
Программа кодирования : VirtualDubMod 1.5.10.3 | (build 2550/release)
Библиотека кодирования : VirtualDubMod build 2550/release
Видео
Идентификатор : 0
Формат : MPEG-4 Visual
Профиль формата : Advanced [email protected]
Параметр BVOP формата : 2
Параметр QPel формата : Нет
Параметр GMC формата : Без точки перехода
Параметр матрицы формата : Default (MPEG)
Идентификатор кодека : XVID
Идентификатор кодека/Подсказка : XviD
Продолжительность : 56 м.
Битрейт : 1322 Кбит/сек
Ширина : 704 пикселя
Высота : 320 пикселей
Соотношение сторон : 2,2:1
Частота кадров : 25,000 кадров/сек
Цветовое пространство : YUV
Субдискретизация насыщенности : 4:2:0
Битовая глубина : 8 бит
Тип развёртки : Прогрессивная
Метод сжатия : С потерями
Бит/(Пиксели*Кадры) : 0.235
Размер потока : 538 Мбайт (77%)
Библиотека кодирования : XviD 73
Аудио #1
Идентификатор : 1
Формат : MPEG Audio
Версия формата : Version 1
Профиль формата : Layer 3
Идентификатор кодека : 55
Идентификатор кодека/Подсказка : MP3
Продолжительность : 56 м.
Вид битрейта : Постоянный
Битрейт : 192 Кбит/сек
Каналы : 2 канала
Частота : 48,0 КГц
Метод сжатия : С потерями
Размер потока : 78,1 Мбайт (11%)
Выравнивание : Соединение по промежуткам
Продолжительность промежутка : 40 мс. (1,00 видеокадр)
Время предзагрузки промежутка : 504 мс.
Библиотека кодирования : LAME3.99r
Настройки программы : -m s -V 4 -q 0 -lowpass 18.6 -b 192
Аудио #2
Идентификатор : 2
Формат : MPEG Audio
Версия формата : Version 1
Профиль формата : Layer 3
Идентификатор кодека : 55
Идентификатор кодека/Подсказка : MP3
Продолжительность : 56 м.
Вид битрейта : Постоянный
Битрейт : 192 Кбит/сек
Каналы : 2 канала
Частота : 48,0 КГц
Метод сжатия : С потерями
Размер потока : 78,1 Мбайт (11%)
Выравнивание : Соединение по промежуткам
Продолжительность промежутка : 40 мс. (1,00 видеокадр)
Время предзагрузки промежутка : 504 мс.
Библиотека кодирования : LAME3.99r
Настройки программы : -m s -V 4 -q 0 -lowpass 18.6 -b 192
Download / Скачать

Хотите скачать бесплатно? Зарегистрируйтесь на сайте (ссылка на регистрацию). Pirat.ca - самый быстрый торрент трекер в рунете!

Как скачивать  ·   Что такое торрент  ·   Рейтинг и ограничения



Последний раз редактировалось: AnastasWolf (2014-07-25 22:27), всего редактировалось 2 раз(а)

printoff

Пост 09-Июл-2014 17:29 (спустя 11 часов)

[Q] 

Спасибо
Одобрямс!
[Профиль]  [ЛС] 

AnastasWolf ®

3476

Пост 11-Июл-2014 17:22 (спустя 1 день 23 часа)

[Q] 

printoff, не за что! Надеюсь на вашу поддержку! ;)

_________________
[Профиль]  [ЛС] 

Пост 28-Янв-2015 00:32 (спустя 6 месяцев 16 дней)

Топик был перенесен из форума Сериалы в эфире в форум Зарубежные сериалы
Андря
 

Victorsalata

Корсар

Пост 05-Фев-2015 11:16 (спустя 6 месяцев 24 дня)

[Q] 

Познавательный сериал. Спасибо.
[Профиль]  [ЛС] 

okorm

889

Пост 13-Фев-2015 06:16 (спустя 7 дней)

[Q] 

Мне понравилось
[Профиль]  [ЛС] 
Показать сообщения:    
Ответить на тему

Текущее время: Сегодня 06:00

Часовой пояс: GMT + 4



Вы не можете начинать темы
Вы не можете отвечать на сообщения
Вы не можете редактировать свои сообщения
Вы не можете удалять свои сообщения
Вы не можете голосовать в опросах
Вы не можете прикреплять файлы к сообщениям
Вы не можете скачивать файлы

▼ Вниз