ML
     
  Уважаемый Гость!
Вы можете поддержать проект и зарегистрироваться у наших партнеров - онлайн-стратегия MyLands. При регистрации в игре Вы получите код, который сможете активировать после регистрации на pirat.ca и получить 1000 дублонов.

Ваш код:
ba41f7961e0b4717aed6a401d955262223b8f6c4
 
     

Выжившая / За пределами / Extant / Сезон: 1 / Полный / Серии: 13 из 13 (Пэрис Барклай / Paris Barclay) [2014 г., фантастика, триллер, драма, HDTVRip] MVO (Amedia) + Original (Eng)

Ответить на тему
 
Автор
Сообщение

Пост 12-Июл-2014 19:43

[Q] 

kugesan

-Выжившая / Extant«Life always finds a way»-- Производство: США
Жанр: фантастика, триллер, драма
Год выпуска: 2014 г.
Продолжительность: 00:41:00-Мировая премьера: 9 июля 2014
Российская премьера: 10 июля 2014-Релиз: студия Кравец по заказу Amedia
Перевод: Многоголосый закадровый, профессиональный
Оригинальный аудиопоток: английский
-
Режиссер: Пэрис Барклай / Paris Barclay, Мэтт Эрл Бисли / Matt Earl Beesley, Аллен Култер / Allen Coulter-В ролях:
Брэд Бейер, Холли Берри, Горан Вишнич, Пирс Гэнон, Камрин Менхейм, Тайлер Хилтон, Серджо Харфорд, Грэйс Гаммер, Майкл О’Нил, Жанетта Арнетт-Описание:
Футуристический триллер о женщине-астронавте, которая возвращается на Землю после космической экспедиции и пытается наладить отношения с семьей, но ее поступки загадочным образом изменяют ход истории всего человечества.-Сезон: 1
Серии: 13 из 13 серий
Продолжительность: ~ 00:41:00 мин серия-Качество видео: HDTVRip
Контейнер: AVI
Видео кодек: XviD
Аудио кодек: MP3
Видео: MPEG-4 Visual at 1584 Кбит/сек: 720 x 400 (1.800) at 23.976 fps: 0.23 Бит/Пиксели
Аудио Rus: MPEG Audio at 128 Кбит/сек, 2 канала, 48,0 КГц |Amedia|
Аудио Eng: MPEG Audio at 128 Кбит/сек: 2 канала, 48,0 КГц |Original|
Cубтитры: присутствуют (Rus)
Формат: Softsub (SRT)
- -
  • Возвращение к обычной жизни (Re-Entry)
  • Вымерший вид (Extinct)
  • Жаль, тебя нет (Wish You Were Here)
  • Убежище (Shelter)
  • Что творится на Земле? (What on Earth Is Wrong?)
  • Кошмары (Nightmares)
  • На Небесах и на Земле (More In Heaven And Earth)
  • Вторжение (Incursion)
  • Уход и кормление (Care and Feeding)
  • Колода карт (A Pack of Cards)
  • Новый мир (A New World)
  • До крови (Before the Blood)
  • Вознесение (Ascension)
-
Код:
Общее
Полное имя                               : E:\_Сериалы\_Сериалы\Выжившая\Extant - За пределами. Сезон 1. Amedia\Extant.S01E01.HDTVRip.Rus.Eng.Amedia.avi
Формат                                   : AVI
Формат/Информация                        : Audio Video Interleave
Размер файла                             : 553 Мбайт
Продолжительность                        : 41 м.
Общий поток                              : 1854 Кбит/сек
Программа кодирования                    : VirtualDubModRus 1.5.10.2 (build 2542/release)
Библиотека кодирования                   : VirtualDubMod build 2542/release
Видео
Идентификатор                            : 0
Формат                                   : MPEG-4 Visual
Профиль формата                          : Advanced [email protected]
Параметр BVOP формата                    : 2
Параметр QPel формата                    : Нет
Параметр GMC формата                     : Без точки перехода
Параметр матрицы формата                 : Default (H.263)
Идентификатор кодека                     : XVID
Идентификатор кодека/Подсказка           : XviD
Продолжительность                        : 41 м.
Битрейт                                  : 1584 Кбит/сек
Ширина                                   : 720 пикселей
Высота                                   : 400 пикселей
Соотношение сторон                       : 16:9
Частота кадров                           : 23,976 кадра/сек
Цветовое пространство                    : YUV
Субдискретизация насыщенности            : 4:2:0
Битовая глубина                          : 8 бит
Тип развёртки                            : Прогрессивная
Метод сжатия                             : С потерями
Бит/(Пиксели*Кадры)                      : 0.229
Размер потока                            : 473 Мбайт (85%)
Библиотека кодирования                   : XviD 1.2.1 (UTC 2008-12-04)
Аудио #1
Идентификатор                            : 1
Формат                                   : MPEG Audio
Версия формата                           : Version 1
Профиль формата                          : Layer 3
Режим                                    : Joint stereo
Расширение режима                        : MS Stereo
Идентификатор кодека                     : 55
Идентификатор кодека/Подсказка           : MP3
Продолжительность                        : 41 м.
Вид битрейта                             : Постоянный
Битрейт                                  : 128 Кбит/сек
Каналы                                   : 2 канала
Частота                                  : 48,0 КГц
Метод сжатия                             : С потерями
Размер потока                            : 38,2 Мбайт (7%)
Выравнивание                             : Соединение по промежуткам
Продолжительность промежутка             : 42  мс. (1,00 видеокадр)
Время предзагрузки промежутка            : 504  мс.
Библиотека кодирования                   : LAME3.99r
Настройки программы                      : -m j -V 4 -q 2 -lowpass 17 -b 128
Аудио #2
Идентификатор                            : 2
Формат                                   : MPEG Audio
Версия формата                           : Version 1
Профиль формата                          : Layer 3
Режим                                    : Joint stereo
Идентификатор кодека                     : 55
Идентификатор кодека/Подсказка           : MP3
Продолжительность                        : 41 м.
Вид битрейта                             : Постоянный
Битрейт                                  : 128 Кбит/сек
Каналы                                   : 2 канала
Частота                                  : 48,0 КГц
Метод сжатия                             : С потерями
Размер потока                            : 38,2 Мбайт (7%)
Выравнивание                             : Соединение по промежуткам
Продолжительность промежутка             : 42  мс. (1,00 видеокадр)
Время предзагрузки промежутка            : 504  мс.
Библиотека кодирования                   : LAME3.99r
Настройки программы                      : -m j -V 4 -q 2 -lowpass 17 -b 128
p=6639781
-
-Скриншоты:
-
-
1. Открыть торрент
2. Снять галки с тех файлов торрента, которые мы не хотим закачивать. Оставляем только на нужных нам файлах (файле).
3. Нажать О.К.
В клиенте utorrent
Инструкция
1) Открыть торрент

2) Снять галки с тех файлов торрента, которые мы не хотим закачивать:
* либо вручную, снимая с каждого файла галку( скрин №1)
* либо, нажав кнопку "Снять метки (Select None)", сняв сразу со всех файлов(скрин №2)
№1

№2

Оставляем только на нужных нам файлах (файле).

3)Нажать О.К
-Добавлена тринадцатая, заключительная, серия первого сезона
Download / Скачать

Хотите скачать бесплатно? Зарегистрируйтесь на сайте (ссылка на регистрацию). Pirat.ca - самый быстрый торрент трекер в рунете!

Как скачивать  ·   Что такое торрент  ·   Рейтинг и ограничения



Последний раз редактировалось: kugesan (2014-10-17 16:42), всего редактировалось 12 раз(а)

kugesan ®

56710

Пост 17-Окт-2014 16:42 (спустя 3 месяца 4 дня)

[Q] 

Добавлена тринадцатая, заключительная, серия первого сезона

_________________

В мире две бесконечности: вселенная и человеческая глупость - Альберт Эйнштен
«Можно вытащить человека из грязи, но нельзя вытащить грязь из человека»!
[Профиль]  [ЛС] 

Пост 17-Окт-2014 19:35 (спустя 2 часа 52 минуты)

Топик был перенесен из форума Сериалы в эфире в форум Зарубежные сериалы
TERMOS
 

maximka2006

Морской Волк

Пост 17-Окт-2014 22:26 (спустя 5 часов)

[Q] 

Кто смотрел? Качать стоит?
[Профиль]  [ЛС] 

raptorred

Лоцман

Пост 17-Фев-2015 02:34 (спустя 3 месяца 30 дней)

[Q] 

Стоит. Не шедевр, но вполне интригующе и смотребельно. Твёрдая четвёрка. Автору спасибо и бочку в трюм! Автору респект!!!
[Профиль]  [ЛС] 

Securityuser

Флибустьер

Пост 27-Фев-2015 18:09 (спустя 10 дней)

[Q] 

Спасибо за раздачу! Автору респект!!!
[Профиль]  [ЛС] 

shelby290

Флибустьер

Пост 15-Авг-2015 22:43 (спустя 5 месяцев 16 дней)

[Q] 

Посмотреть можно. Интерестная тема!
[Профиль]  [ЛС] 
Показать сообщения:    
Ответить на тему

Текущее время: Сегодня 14:45

Часовой пояс: GMT + 4



Вы не можете начинать темы
Вы не можете отвечать на сообщения
Вы не можете редактировать свои сообщения
Вы не можете удалять свои сообщения
Вы не можете голосовать в опросах
Вы не можете прикреплять файлы к сообщениям
Вы не можете скачивать файлы

▼ Вниз