ML
     
  Уважаемый Гость!
Вы можете поддержать проект и зарегистрироваться у наших партнеров - онлайн-стратегия MyLands. При регистрации в игре Вы получите код, который сможете активировать после регистрации на pirat.ca и получить 1000 дублонов.

Ваш код:
5af7de75d3db09b6a37bc8bab71b0e87ccde73d6
 
     

Мост / The Bridge (Сезон 2 / Полный / Серии: 13 из 13) (Алекс Закржевский / Alex Zakrzewski, ...) (2013 г., Триллер, драма, криминал, детектив, WEB-DLRip) MVO (LostFilm)

Ответить на тему
 
Автор
Сообщение

Пост 12-Июл-2014 22:25

[Q] 

kugesan

Мост / The Bridge «Every body is connected»- Русское название: Мост
Оригинальное название: The Bridge
Страна: США
Год выпуска: 2013
Жанр: Триллер, драма, криминал, детектив ...-Озвучка: Студия
Перевод: Профессиональный (многоголосый закадровый)-Режиссер: Алекс Закржевский / Alex Zakrzewski, Кит Гордон / Keith Gordon, Гвинет Хердер-Пэйтон / Gwyneth Horder-Payton, ...
В главных ролях: Дайан Крюгер, Демиан Бишир, Аннабет Гиш, Тед Левайн, Эмили Риос, Эрик Ланж, Джейк Олстон, Карлос Праттс, Каталина Сандино Морено, Томас М. Райт, Мэттью Лиллард, Диана-Мария Рива, Брайан Ван Холт, Хуан Карлос Канту, Рамон Франко, Лайл Лаветт, Джейсон Уайлз, Мэри Пэт Глисон ...-Описание фильма:
Драма о двух детективах, вынужденных работать вместе, чтобы схватить серийного убийцу, действующего по обе стороны американско-мексиканской границы.-Сезон: 2
Серии: 13 из 13 серий
Продолжительность: ~ 00:50:00 мин серия-Качество видео: WEB-DLRip
Контейнер: AVI
Видео кодек: XviD
Аудио кодек: AC-3
Видео: MPEG-4 Visual at 1347 Кбит/сек: 720 x 400 (1.800) at 23.976 fps: 0.19 Бит/Пиксели
Аудио: MPEG Audio at 192 Кбит/сек: 2 канала, 48,0 КГц |LostFilm|
Cубтитры: присутствуют (Eng)
Формат: hardsub (неотключаемые)
- -
  • Янки (Yankee)
  • Призрак Блохи (Ghost of a Flea)
  • Адепт скорби (Sorrowsworn)
  • Жёлудь (The Acorn)
  • Глаз бездны (Eye of the Deep)
  • Урожай душ (Harvest of Souls)
  • Ламия (Lamia)
  • Голиаф (Goliath)
  • Ракшаса (Rakshasa)
  • Эйдолон (Eidolon)
  • Наблюдатель (Beholder)
  • Кетцалькоатль (Quetzalcoatl)
  • Джубилекс (Jubilex)
-
Код:
Общее
Полное имя                               : E:\_Сериалы\_Сериалы\Мост\The.Bridge.S02.LostFilm\The.Bridge.S02E01.rus.LostFilm.TV.avi
Формат                                   : AVI
Формат/Информация                        : Audio Video Interleave
Размер файла                             : 561 Мбайт
Продолжительность                        : 50 м.
Режим общего битрейта                    : Переменный
Общий поток                              : 1546 Кбит/сек
Программа кодирования                    : Nandub v1.0rc2
Библиотека кодирования                   : Nandub build 1853/release
Видео
Идентификатор                            : 0
Формат                                   : MPEG-4 Visual
Профиль формата                          : Advanced [email protected]
Параметр BVOP формата                    : Нет
Параметр QPel формата                    : Нет
Параметр GMC формата                     : Без точки перехода
Параметр матрицы формата                 : Default (H.263)
Идентификатор кодека                     : XVID
Идентификатор кодека/Подсказка           : XviD
Продолжительность                        : 50 м.
Битрейт                                  : 1347 Кбит/сек
Ширина                                   : 720 пикселей
Высота                                   : 400 пикселей
Соотношение сторон                       : 16:9
Частота кадров                           : 23,976 кадра/сек
Цветовое пространство                    : YUV
Субдискретизация насыщенности            : 4:2:0
Битовая глубина                          : 8 бит
Тип развёртки                            : Прогрессивная
Метод сжатия                             : С потерями
Бит/(Пиксели*Кадры)                      : 0.195
Размер потока                            : 489 Мбайт (87%)
Библиотека кодирования                   : XviD 1.2.1 (UTC 2008-12-04)
Аудио
Идентификатор                            : 1
Формат                                   : MPEG Audio
Версия формата                           : Version 1
Профиль формата                          : Layer 3
Режим                                    : Joint stereo
Расширение режима                        : MS Stereo
Идентификатор кодека                     : 55
Идентификатор кодека/Подсказка           : MP3
Продолжительность                        : 50 м.
Вид битрейта                             : Переменный
Битрейт                                  : 192 Кбит/сек
Каналы                                   : 2 канала
Частота                                  : 48,0 КГц
Метод сжатия                             : С потерями
Размер потока                            : 67,6 Мбайт (12%)
Выравнивание                             : Соединение по промежуткам
Продолжительность промежутка             : 24  мс. (0,58 видеокадр)
Время предзагрузки промежутка            : 490  мс.
Библиотека кодирования                   : LAME3.97b
Настройки программы                      : -m j -V 4 -q 3 -lowpass 18.6 --abr 192
-
-Скриншоты:
-
-
1. Открыть торрент
2. Снять галки с тех файлов торрента, которые мы не хотим закачивать. Оставляем только на нужных нам файлах (файле).
3. Нажать О.К.
В клиенте utorrent
Инструкция
1) Открыть торрент

2) Снять галки с тех файлов торрента, которые мы не хотим закачивать:
* либо вручную, снимая с каждого файла галку( скрин №1)
* либо, нажав кнопку "Снять метки (Select None)", сняв сразу со всех файлов(скрин №2)
№1

№2

Оставляем только на нужных нам файлах (файле).

3)Нажать О.К
-Добавлена тринадцатая, заключительная, серия второго сезона
Download / Скачать

Хотите скачать бесплатно? Зарегистрируйтесь на сайте (ссылка на регистрацию). Pirat.ca - самый быстрый торрент трекер в рунете!

Как скачивать  ·   Что такое торрент  ·   Рейтинг и ограничения



Последний раз редактировалось: kugesan (2014-10-05 14:05), всего редактировалось 15 раз(а)

Igrix

Шкипер

Пост 24-Авг-2014 14:39 (спустя 1 месяц 11 дней)

[Q] 

Хороший сериал!Смотрел 1сезон (пр.Швеция)
[Профиль]  [ЛС] 

gavposad37

Юнга

Пост 21-Сен-2014 22:30 (спустя 28 дней)

[Q] 

американский ремейк рядом со шведским оригиналом не валялся....
[Профиль]  [ЛС] 

kugesan ®

56652

Пост 05-Окт-2014 14:04 (спустя 13 дней)

[Q] 

Добавлена тринадцатая, заключительная, серия второго сезона

_________________

В мире две бесконечности: вселенная и человеческая глупость - Альберт Эйнштен
«Можно вытащить человека из грязи, но нельзя вытащить грязь из человека»!
[Профиль]  [ЛС] 

Пост 05-Окт-2014 18:14 (спустя 4 часа)

Топик был перенесен из форума Сериалы в эфире в форум Зарубежные сериалы
TERMOS
 
Показать сообщения:    
Ответить на тему

Текущее время: Сегодня 14:09

Часовой пояс: GMT + 4



Вы не можете начинать темы
Вы не можете отвечать на сообщения
Вы не можете редактировать свои сообщения
Вы не можете удалять свои сообщения
Вы не можете голосовать в опросах
Вы не можете прикреплять файлы к сообщениям
Вы не можете скачивать файлы

▼ Вниз