ML
     
  Уважаемый Гость!
Вы можете поддержать проект и зарегистрироваться у наших партнеров - онлайн-стратегия MyLands. При регистрации в игре Вы получите код, который сможете активировать после регистрации на pirat.ca и получить 1000 дублонов.

Ваш код:
ea554e7ed3eacceeae87a8b30a9de3f086c18a84
 
     

Штамм / The Strain (Сезон 1 / Полный / Серии: 13 из 13) (Гильермо дель Торо / Guillermo del Toro, ...) [2014г., ужасы, фантастика, драма, ... WEB-DLRip] MVO (NewStudio) + Original (Eng)

Ответить на тему
 
Автор
Сообщение

Пост 16-Июл-2014 20:04

[Q] 

kugesan

Штамм / The Strain- Русское название: Штамм
Оригинальное название: The Strain
Страна: США
Год выпуска: 2014
Жанр: ужасы, фантастика, драма, ...-Озвучка: Студия |NewStudio|
Перевод: Многоголосый закадровый, профессиональный
Оригинальный аудиопоток: английский-Перевод: Ptyza, Наталья Черненко
Постер: Vortex-Премьера (мир): 13 июля 2014, ...-Режиссер: Гильермо дель Торо / Guillermo del Toro, Дэвид Семел / David Semel, Кит Гордон / Keith Gordon, ...
В главных ролях: Дэвид Брэдли, Энн Бетанкорт, Николай Вич, Педро Мигель Арсе, Дрю Нельсон, Джо Веркилло, Джим Уотсон, Алекс Пэкстон, Джонатан Поттс, Рихард Заммель, ...-Описание фильма:
В аэропорту Нью-Йорка совершает посадку трансатлантический лайнер с мертвыми пассажирами. В дальнейшем пассажиры оживают, только это уже не люди, а исчадия ада, беспощадные вампиры…-Сезон: 1
Серии: 13 из 13 серий
Продолжительность: ~ 01:00:00 мин серия-Качество видео: WEB-DLRip
Формат: AVI
Видеокодек: XviD
Аудиокодек: Mp3
Видео: MPEG-4 Visual at 1285 Кбит/сек: 720 x 400 (1.800) at 23.976 fps, 0.19 Бит/Пиксели
Аудио Rus: MPEG Audio at 128 Кбит/сек: 2 канала, 48,0 КГц |NewStudio|
Аудио Eng: MPEG Audio at 128 Кбит/сек: 2 канала, 48,0 КГц |Original|
-
-
  • Нулевая Ночь (Night Zero)
  • Ящик (The Box)
  • Все прошло гладко (Gone Smooth)
  • Способны не все (It's Not for Everyone)
  • Беглецы (Runaways)
  • Затмение (Occultation)
  • За оказанные услуги (For Services Rendered)
  • Ночные создания (Creatures of the Night)
  • Исчезновение (The Disappeared)
  • Любимые (Loved Ones)
  • Третий Рельс (The Third Rail)
  • Последние почести (Last Rites)
  • Мастер (The Master)
-
Код:
Общее
Полное имя                               : E:\_Сериалы\_Сериалы\Штамм\The Strain.s01.NewStudio\The.Strain.s01e01.WEBDLRip.NewStudio.TV.avi
Формат                                   : AVI
Формат/Информация                        : Audio Video Interleave
Размер файла                             : 800 Мбайт
Продолжительность                        : 1 ч. 11 м.
Общий поток                              : 1555 Кбит/сек
Программа кодирования                    : VirtualDubMod 1.5.10.2 (build 2540/release)
Библиотека кодирования                   : VirtualDubMod build 2540/release
Видео
Идентификатор                            : 0
Формат                                   : MPEG-4 Visual
Профиль формата                          : Advanced [email protected]
Параметр BVOP формата                    : 2
Параметр QPel формата                    : Нет
Параметр GMC формата                     : Без точки перехода
Параметр матрицы формата                 : Default (MPEG)
Идентификатор кодека                     : XVID
Идентификатор кодека/Подсказка           : XviD
Продолжительность                        : 1 ч. 11 м.
Битрейт                                  : 1285 Кбит/сек
Ширина                                   : 720 пикселей
Высота                                   : 400 пикселей
Соотношение сторон                       : 16:9
Частота кадров                           : 23,976 кадра/сек
Цветовое пространство                    : YUV
Субдискретизация насыщенности            : 4:2:0
Битовая глубина                          : 8 бит
Тип развёртки                            : Прогрессивная
Метод сжатия                             : С потерями
Бит/(Пиксели*Кадры)                      : 0.186
Размер потока                            : 661 Мбайт (83%)
Библиотека кодирования                   : XviD 64
Аудио #1
Идентификатор                            : 1
Формат                                   : MPEG Audio
Версия формата                           : Version 1
Профиль формата                          : Layer 3
Режим                                    : Joint stereo
Расширение режима                        : MS Stereo
Идентификатор кодека                     : 55
Идентификатор кодека/Подсказка           : MP3
Продолжительность                        : 1 ч. 11 м.
Вид битрейта                             : Постоянный
Битрейт                                  : 128 Кбит/сек
Каналы                                   : 2 канала
Частота                                  : 48,0 КГц
Метод сжатия                             : С потерями
Размер потока                            : 65,9 Мбайт (8%)
Выравнивание                             : Соединение по промежуткам
Продолжительность промежутка             : 42  мс. (1,00 видеокадр)
Время предзагрузки промежутка            : 504  мс.
Аудио #2
Идентификатор                            : 2
Формат                                   : MPEG Audio
Версия формата                           : Version 1
Профиль формата                          : Layer 3
Режим                                    : Joint stereo
Расширение режима                        : MS Stereo
Идентификатор кодека                     : 55
Идентификатор кодека/Подсказка           : MP3
Продолжительность                        : 1 ч. 11 м.
Вид битрейта                             : Постоянный
Битрейт                                  : 128 Кбит/сек
Каналы                                   : 2 канала
Частота                                  : 48,0 КГц
Метод сжатия                             : С потерями
Размер потока                            : 65,9 Мбайт (8%)
Выравнивание                             : Соединение по промежуткам
Продолжительность промежутка             : 42  мс. (1,00 видеокадр)
Время предзагрузки промежутка            : 504  мс.
Библиотека кодирования                   : LAME3.99r
Настройки программы                      : -m j -V 4 -q 2 -lowpass 17 -b 128
-
-Скриншоты:
-
-
1. Открыть торрент
2. Снять галки с тех файлов торрента, которые мы не хотим закачивать. Оставляем только на нужных нам файлах (файле).
3. Нажать О.К.
В клиенте utorrent
Инструкция
1) Открыть торрент

2) Снять галки с тех файлов торрента, которые мы не хотим закачивать:
* либо вручную, снимая с каждого файла галку( скрин №1)
* либо, нажав кнопку "Снять метки (Select None)", сняв сразу со всех файлов(скрин №2)
№1

№2

Оставляем только на нужных нам файлах (файле).

3)Нажать О.К
-Добавлена тринадцатая, заключительная, серия первого сезона
Второй сезон ожидается в июле 2015 года
Download / Скачать

Хотите скачать бесплатно? Зарегистрируйтесь на сайте (ссылка на регистрацию). Pirat.ca - самый быстрый торрент трекер в рунете!

Как скачивать  ·   Что такое торрент  ·   Рейтинг и ограничения



Последний раз редактировалось: kugesan (2014-10-07 22:08), всего редактировалось 13 раз(а)

colors2

Лоцман

Пост 21-Июл-2014 22:50 (спустя 5 дней)

[Q] 

где узнать расписание выхода серий?
Добавлено спустя 39 секунд:
Ребята, спасибо огромное!!!! Очень ждал!!
[Профиль]  [ЛС] 

ягжин

Гроза морей

Пост 22-Июл-2014 16:19 (спустя 17 часов)

[Q] 

Спасибо! Ждал! Автору респект!!! Лови бочку
[Профиль]  [ЛС] 

kugesan ®

56651

Пост 22-Июл-2014 17:35 (спустя 1 час 16 минут)

[Q] 

colors2, Расписание

_________________

В мире две бесконечности: вселенная и человеческая глупость - Альберт Эйнштен
«Можно вытащить человека из грязи, но нельзя вытащить грязь из человека»!
[Профиль]  [ЛС] 

Daar

Пост 19-Авг-2014 22:11 (спустя 28 дней)

[Q] 

После просмотра пару серий.... снес.
[Профиль]  [ЛС] 

eHoT

Штурман

Пост 02-Сен-2014 16:28 (спустя 13 дней)

[Q] 

Клево! Спасибо :)) Как скачаю, побуду на раздаче какое-то время - чистые 150мбит\с
[Профиль]  [ЛС] 

SHERHAN

683

Пост 02-Сен-2014 16:33 (спустя 4 минуты)

[Q] 

Подтверждаю, клевый сериал!

_________________
Рыжий хищник, полосатый,
В меру наглый и усатый,
Днём и ночью он не спит,
Зорко в монитор глядит!
[Профиль]  [ЛС] 

kindcat

Морской Волк

Пост 02-Сен-2014 20:25 (спустя 3 часа)

[Q] 

Отличный сериал про монстру и прочее. ИМХО мало такого хорошего выходит, пленка отличная озвучка тоже. И задумка не стандартная. Кто любит зомби, вампов и тд рекомендую к просмотру. Не дешевый трешь в виде тв3. 9.5 из 10. Пол бала за "типичного" русского .... anime8

_________________
[Профиль]  [ЛС] 

Танюха10988

Гроза морей

Пост 03-Сен-2014 00:47 (спустя 4 часа)

[Q] 

Спасибо Автору респект!!!
[Профиль]  [ЛС] 

Pesok

Гроза морей

Пост 07-Сен-2014 21:25 (спустя 4 дня)

[Q] 

спасибо, в самом начале посмотрел 1вую сирию и как то не пощел у нас сериал. Еще раз попробуем сейчас

_________________
[Профиль]  [ЛС] 

kugesan ®

56651

Пост 07-Сен-2014 22:17 (спустя 51 минута)

[Q] 

Уж дождитесь тогда до последней серии)))

_________________

В мире две бесконечности: вселенная и человеческая глупость - Альберт Эйнштен
«Можно вытащить человека из грязи, но нельзя вытащить грязь из человека»!
[Профиль]  [ЛС] 

kugesan ®

56651

Пост 07-Окт-2014 22:05 (спустя 29 дней)

[Q] 

Добавлена тринадцатая, заключительная, серия первого сезона
Второй сезон ожидается в июле 2015 года

_________________

В мире две бесконечности: вселенная и человеческая глупость - Альберт Эйнштен
«Можно вытащить человека из грязи, но нельзя вытащить грязь из человека»!
[Профиль]  [ЛС] 

maksimum73

Корсар

Пост 08-Окт-2014 13:58 (спустя 15 часов)

[Q] 

Ну чё посмотрим холодными осенними вечерами az
[Профиль]  [ЛС] 

Vintorezov REG 39

Легенда

176

Пост 08-Окт-2014 19:09 (спустя 5 часов)

[Q] 

Не плохое кино Спасибо!!!
[Профиль]  [ЛС] 
Показать сообщения:    
Ответить на тему

Текущее время: Сегодня 12:08

Часовой пояс: GMT + 4



Вы не можете начинать темы
Вы не можете отвечать на сообщения
Вы не можете редактировать свои сообщения
Вы не можете удалять свои сообщения
Вы не можете голосовать в опросах
Вы не можете прикреплять файлы к сообщениям
Вы не можете скачивать файлы

▼ Вниз