ML
     
  Уважаемый Гость!
Вы можете поддержать проект и зарегистрироваться у наших партнеров - онлайн-стратегия MyLands. При регистрации в игре Вы получите код, который сможете активировать после регистрации на pirat.ca и получить 1000 дублонов.

Ваш код:
a6d1ef7ff63e237add5a4c8b21d8aa937c5e9b4b
 
     

Штамм / The Strain (Сезон 1 / Полный / Серии: 13 из 13) (Гильермо дель Торо / Guillermo del Toro, ...) [2014г., ужасы, фантастика, драма, ... WEB-DLRip] MVO (AlexFilm) + Original (Eng)

Ответить на тему
 
Автор
Сообщение

Пост 16-Июл-2014 21:01

[Q] 

kugesan

Штамм / The Strain- Русское название: Штамм
Оригинальное название: The Strain
Страна: США
Год выпуска: 2014
Жанр: ужасы, фантастика, драма, ...-Озвучка: Студия
Перевод: Многоголосый закадровый, профессиональный
Оригинальный аудиопоток: английский-Перевод: Doctor Joker и MartinaG
Озвучка: Евгения Тихонова, Михаил Суслов, Сергей Пономарёв, Роман Сопко
Монтаж и сведение звука: Михаил Шорыгин
Постер: Андрей Шапал-Премьера (мир): 13 июля 2014, ...-Режиссер: Гильермо дель Торо / Guillermo del Toro, Дэвид Семел / David Semel, Кит Гордон / Keith Gordon, ...
В главных ролях: Дэвид Брэдли, Энн Бетанкорт, Николай Вич, Педро Мигель Арсе, Дрю Нельсон, Джо Веркилло, Джим Уотсон, Алекс Пэкстон, Джонатан Поттс, Рихард Заммель, ...-Описание фильма:
В аэропорту Нью-Йорка совершает посадку трансатлантический лайнер с мертвыми пассажирами. В дальнейшем пассажиры оживают, только это уже не люди, а исчадия ада, беспощадные вампиры…-Сезон: 1
Серии: 13 из 13 серий
Продолжительность: ~ 01:00:00 мин серия-Качество видео: WEB-DLRip
Формат: AVI
Видеокодек: XviD
Аудиокодек: Mp3
Видео: MPEG-4 Visual at 1308 Кбит/сек: 720 x 400 (1.800) at 23.976 fps, 0.19 Бит/Пиксели
Аудио Rus: MPEG Audio at 128 Кбит/сек: 2 канала, 48,0 КГц |AlexFilm|
Аудио Eng: MPEG Audio at 128 Кбит/сек: 2 канала, 48,0 КГц |Original|
-
-
  • Нулевая Ночь (Night Zero)
  • Ящик (The Box)
  • Все прошло гладко (Gone Smooth)
  • Не для всех (It's Not for Everyone)
  • Сбежавшие (Runaways)
  • Затмение (Occultation)
  • За оказанные услуги (For Services Rendered)
  • Ночные создания (Creatures of the Night)
  • Исчезновение (The Disappeared)
  • Любимые (Loved Ones)
  • Контактный рельс (The Third Rail)
  • Отпевание (Last Rites)
  • Мастер (The Master)
-
Код:
Общее
Полное имя                               : E:\_Сериалы\_Сериалы\Штамм\The Strain - Season 1 (AlexFilm) WEB-DLRip\The.Strain.s01e01.WEB-DLRip.Rus.Eng.AlexFilm.avi
Формат                                   : AVI
Формат/Информация                        : Audio Video Interleave
Размер файла                             : 811 Мбайт
Продолжительность                        : 1 ч. 11 м.
Общий поток                              : 1578 Кбит/сек
Название фильма                          : The Strain 1x01 Night Zero @ AlexFilm
Программа кодирования                    : VirtualDubMod 1.5.10.2 (build 2542/release)
Видео
Идентификатор                            : 0
Формат                                   : MPEG-4 Visual
Профиль формата                          : Advanced [email protected]
Параметр BVOP формата                    : 1
Параметр QPel формата                    : Нет
Параметр GMC формата                     : Без точки перехода
Параметр матрицы формата                 : Default (MPEG)
Идентификатор кодека                     : XVID
Идентификатор кодека/Подсказка           : XviD
Продолжительность                        : 1 ч. 11 м.
Битрейт                                  : 1308 Кбит/сек
Ширина                                   : 720 пикселей
Высота                                   : 400 пикселей
Соотношение сторон                       : 16:9
Частота кадров                           : 23,976 кадра/сек
Цветовое пространство                    : YUV
Субдискретизация насыщенности            : 4:2:0
Битовая глубина                          : 8 бит
Тип развёртки                            : Прогрессивная
Метод сжатия                             : С потерями
Бит/(Пиксели*Кадры)                      : 0.189
Размер потока                            : 672 Мбайт (83%)
Библиотека кодирования                   : XviD 1.2.1 (UTC 2008-12-04)
Аудио #1
Идентификатор                            : 1
Формат                                   : MPEG Audio
Версия формата                           : Version 1
Профиль формата                          : Layer 3
Режим                                    : Joint stereo
Расширение режима                        : MS Stereo
Идентификатор кодека                     : 55
Идентификатор кодека/Подсказка           : MP3
Продолжительность                        : 1 ч. 11 м.
Вид битрейта                             : Постоянный
Битрейт                                  : 128 Кбит/сек
Каналы                                   : 2 канала
Частота                                  : 48,0 КГц
Метод сжатия                             : С потерями
Размер потока                            : 65,8 Мбайт (8%)
Выравнивание                             : Соединение по промежуткам
Продолжительность промежутка             : 42  мс. (1,00 видеокадр)
Время предзагрузки промежутка            : 504  мс.
Заголовок                                : Russian (AlexFilm)
Аудио #2
Идентификатор                            : 2
Формат                                   : MPEG Audio
Версия формата                           : Version 1
Профиль формата                          : Layer 3
Режим                                    : Joint stereo
Идентификатор кодека                     : 55
Идентификатор кодека/Подсказка           : MP3
Продолжительность                        : 1 ч. 11 м.
Вид битрейта                             : Постоянный
Битрейт                                  : 128 Кбит/сек
Каналы                                   : 2 канала
Частота                                  : 48,0 КГц
Метод сжатия                             : С потерями
Размер потока                            : 65,8 Мбайт (8%)
Выравнивание                             : Соединение по промежуткам
Продолжительность промежутка             : 42  мс. (1,00 видеокадр)
Время предзагрузки промежутка            : 504  мс.
Заголовок                                : English
-
-Скриншоты:
-
-
1. Открыть торрент
2. Снять галки с тех файлов торрента, которые мы не хотим закачивать. Оставляем только на нужных нам файлах (файле).
3. Нажать О.К.
В клиенте utorrent
Инструкция
1) Открыть торрент

2) Снять галки с тех файлов торрента, которые мы не хотим закачивать:
* либо вручную, снимая с каждого файла галку( скрин №1)
* либо, нажав кнопку "Снять метки (Select None)", сняв сразу со всех файлов(скрин №2)
№1

№2

Оставляем только на нужных нам файлах (файле).

3)Нажать О.К
-Добавлена тринадцатая, заключительная, серия первого сезона
Второй сезон ожидается в июле 2015 года
Download / Скачать

Хотите скачать бесплатно? Зарегистрируйтесь на сайте (ссылка на регистрацию). Pirat.ca - самый быстрый торрент трекер в рунете!

Как скачивать  ·   Что такое торрент  ·   Рейтинг и ограничения



Последний раз редактировалось: kugesan (2014-10-07 22:09), всего редактировалось 15 раз(а)

ho88ed

Штурман

Пост 17-Июл-2014 03:39 (спустя 6 часов)

[Q] 

Многообещающее начало.
[Профиль]  [ЛС] 

kugesan ®

56602

Пост 24-Июл-2014 13:09 (спустя 7 дней)

[Q] 

Приятного просмотра!!!

_________________

В мире две бесконечности: вселенная и человеческая глупость - Альберт Эйнштен
«Можно вытащить человека из грязи, но нельзя вытащить грязь из человека»!
[Профиль]  [ЛС] 

caesarhunt

Лоцман

Пост 09-Авг-2014 17:50 (спустя 16 дней)

[Q] 

Пока идет нормально,глянем что дальше
[Профиль]  [ЛС] 

kugesan ®

56602

Пост 20-Авг-2014 13:48 (спустя 10 дней)

[Q] 

Третья, заменена на исправленную

_________________

В мире две бесконечности: вселенная и человеческая глупость - Альберт Эйнштен
«Можно вытащить человека из грязи, но нельзя вытащить грязь из человека»!
[Профиль]  [ЛС] 

I-1vadim

Шкипер

Пост 20-Авг-2014 19:47 (спустя 5 часов)

[Q] 

570159Добавлена шестая серия первого сезона
Третья, заменена на исправленную
а чего с 3-й не так было???
[Профиль]  [ЛС] 

kugesan ®

56602

Пост 20-Авг-2014 20:24 (спустя 36 минут)

[Q] 

I-1vadim,

_________________

В мире две бесконечности: вселенная и человеческая глупость - Альберт Эйнштен
«Можно вытащить человека из грязи, но нельзя вытащить грязь из человека»!
[Профиль]  [ЛС] 

Serjo_boss

Лоцман

Пост 03-Сен-2014 00:14 (спустя 13 дней)

[Q] 

Спасибо за раздачу хороший сериал Автору респект!!!
[Профиль]  [ЛС] 

kugesan ®

56602

Пост 07-Окт-2014 22:04 (спустя 1 месяц 4 дня)

[Q] 

Добавлена тринадцатая, заключительная, серия первого сезона
Второй сезон ожидается в июле 2015 года

_________________

В мире две бесконечности: вселенная и человеческая глупость - Альберт Эйнштен
«Можно вытащить человека из грязи, но нельзя вытащить грязь из человека»!
[Профиль]  [ЛС] 

Vintorezov REG 39

Легенда

176

Пост 08-Окт-2014 19:14 (спустя 21 час)

[Q] 

Хорошее кино будем смотреть Спасибо!!!
[Профиль]  [ЛС] 
Показать сообщения:    
Ответить на тему

Текущее время: Сегодня 13:32

Часовой пояс: GMT + 4



Вы не можете начинать темы
Вы не можете отвечать на сообщения
Вы не можете редактировать свои сообщения
Вы не можете удалять свои сообщения
Вы не можете голосовать в опросах
Вы не можете прикреплять файлы к сообщениям
Вы не можете скачивать файлы

▼ Вниз