ML
     
  Уважаемый Гость!
Вы можете поддержать проект и зарегистрироваться у наших партнеров - онлайн-стратегия MyLands. При регистрации в игре Вы получите код, который сможете активировать после регистрации на pirat.ca и получить 1000 дублонов.

Ваш код:
2932e5898d0a27592397f70b82a5834d1e70ea19
 
     

Фрейд / Freud / Серии: 1-6 из 6 [мини-сериал] (Мойра Армстронг / Moira Armstrong) [1984 г., биография, драма, история, DVDRip] DVO + Original (Eng) + Sub (Rus)

Ответить на тему
 
Автор
Сообщение

Пост 17-Июл-2014 03:03

[Q] 

AnastasWolf

-Фрейд / Freud- Год выпуска: 1984 г.
Производство: Великобритания , BBC-TV Production, Hearst/ABC-RCTV
Жанр: биография, драма, история
Продолжительность: 6x ~ 00:59:00
Мировая премьера: 14 сентября 1984г.
Дата выхода DVD: 2 апреля 2008г., «Кармен Видео»
Перевод: Профессиональный (двухголосый, закадровый)
Оригинальный аудиопоток: английский
Режиссёр: Мойра Армстронг / Moira Armstrong-В ролях: Дэвид Суше, Дэвид Свифт, Хелен Борн, Элисон Ки, Энтон Лессер, Фрэнк Бэйкер, Ховард Гурни, Элиза Хант, Сюзенн Бертиш, Майкл Кичен-Описание: Мини-сериал об основателе психоанализа - это образцовый британский фильм-биография, сделанный с прекрасным вкусом и чувством меры. Авторы выдвинули на первый план отношения Фрейда с дочерью Анной, из-за чего история сразу приобрела человеческое измерение. Не секрет, что "великий и ужасный" доктор сам состоял из травм и зажимов, для борьбы с которыми и сочинил свой легендарный метод. Он и был своим главным пациентом. Почти все общественно-полезные вещи получаются из такой сугубо личной вовлечённости. А польза, по крайней мере, значимость психоанализа для минувшего столетия - аксиома, не требующая доказательств.
В интервью литературному журналу "Стрэнд" Дэвид Суше признался, что хотя Эркюль Пуаро и остаётся главным делом его жизни, он никогда не затмит роль Зигмунда Фрейда, сыгранную в середине 1980-х.
- *7.5 *7.432Качество видео: DVDRip
Контейнер: AVI
Видео кодек: XviD
Аудио кодек: AC3
Видео: 720x560, ~ 1380 kbps avg, 25 fps, 0.137 bit/pixel
Аудио #1: Russian: 128 kbps, 2 ch, 48.0 kHz
Аудио #2: English: 128 kbps, 2 ch, 48.0 kHz
Cубтитры: русские (*srt)
1. Во имя богов / In the Name of the Gods
2. Гипнотизёр / The Hypnotist
3. Тайна снов / The Secret of Dreams
4. Мадонна / Madonna
5. Мессия / Messiah
6. Мир как сон / The World as Dream
1986г. - Royal Television Society - Лучшая мужская роль (Дэвид Суше)
Общее
Полное имя : Фрейд_ Freud.1984.[DVDRip]\Freud_1_of_6.avi
Формат : AVI
Формат/Информация : Audio Video Interleave
Размер файла : 700 Мбайт
Продолжительность : 59 м.
Общий поток : 1648 Кбит/сек
Программа кодирования : VirtualDubMod 1.5.10.2 (build 2542/release)
Библиотека кодирования : VirtualDubMod build 2542/release
Видео
Идентификатор : 0
Формат : MPEG-4 Visual
Профиль формата : Advanced [email protected]
Параметр BVOP формата : 1
Параметр QPel формата : Нет
Параметр GMC формата : Без точки перехода
Параметр матрицы формата : Default (MPEG)
Идентификатор кодека : XVID
Идентификатор кодека/Подсказка : XviD
Продолжительность : 59 м.
Битрейт : 1378 Кбит/сек
Ширина : 720 пикселей
Высота : 560 пикселей
Соотношение сторон : 1,286
Частота кадров : 25,000 кадров/сек
Цветовое пространство : YUV
Субдискретизация насыщенности : 4:2:0
Битовая глубина : 8 бит
Тип развёртки : Прогрессивная
Метод сжатия : С потерями
Бит/(Пиксели*Кадры) : 0.137
Размер потока : 585 Мбайт (84%)
Библиотека кодирования : XviD 1.2.0.dev47 (UTC 2006-11-01)
Аудио #1
Идентификатор : 1
Формат : AC-3
Формат/Информация : Audio Coding 3
Расширение режима : CM (complete main)
Параметр Endianness формата : Big
Идентификатор кодека : 2000
Продолжительность : 59 м.
Вид битрейта : Постоянный
Битрейт : 128 Кбит/сек
Каналы : 2 канала
Расположение каналов : Front: L R
Частота : 48,0 КГц
Битовая глубина : 16 бит
Метод сжатия : С потерями
Размер потока : 54,4 Мбайт (8%)
Выравнивание : Разделение по промежуткам
Продолжительность промежутка : 40 мс. (1,00 видеокадр)
Время предзагрузки промежутка : 500 мс.
Аудио #2
Идентификатор : 2
Формат : AC-3
Формат/Информация : Audio Coding 3
Расширение режима : CM (complete main)
Параметр Endianness формата : Big
Идентификатор кодека : 2000
Продолжительность : 59 м.
Вид битрейта : Постоянный
Битрейт : 128 Кбит/сек
Каналы : 2 канала
Расположение каналов : Front: L R
Частота : 48,0 КГц
Битовая глубина : 16 бит
Метод сжатия : С потерями
Размер потока : 54,4 Мбайт (8%)
Выравнивание : Разделение по промежуткам
Продолжительность промежутка : 40 мс. (1,00 видеокадр)
Время предзагрузки промежутка : 500 мс.
Скриншоты:
Download / Скачать

Хотите скачать бесплатно? Зарегистрируйтесь на сайте (ссылка на регистрацию). Pirat.ca - самый быстрый торрент трекер в рунете!

Как скачивать  ·   Что такое торрент  ·   Рейтинг и ограничения

Показать сообщения:    
Ответить на тему

Текущее время: Сегодня 07:58

Часовой пояс: GMT + 4



Вы не можете начинать темы
Вы не можете отвечать на сообщения
Вы не можете редактировать свои сообщения
Вы не можете удалять свои сообщения
Вы не можете голосовать в опросах
Вы не можете прикреплять файлы к сообщениям
Вы не можете скачивать файлы

▼ Вниз