ML
     
  Уважаемый Гость!
Вы можете поддержать проект и зарегистрироваться у наших партнеров - онлайн-стратегия MyLands. При регистрации в игре Вы получите код, который сможете активировать после регистрации на pirat.ca и получить 1000 дублонов.

Ваш код:
e93cd9e43017f251127f220889864c05934e61c6
 
     

Пуаро Агаты Кристи / Agatha Christies Poirot / Сезон: 13 / Серии: 1-5 из 5 (Джон Стрикленд / John Strickland, Питер Лайдон / Peter Lydon, ...) [2013 г., детектив, драма, экранизация, HDTVRip, 720p] MVO (ТВЦ) + Original (Eng) + Sub (Rus, Eng)

Ответить на тему
 
Автор
Сообщение

Пост 17-Июл-2014 10:01

[Q] 

AnastasWolf

-Пуаро Агаты Кристи / Agatha Christies Poirot-Сезон 13- Год выпуска: 2013 г.
Производство: Великобритания , Agatha Christies LTD., WGBH Boston
Жанр: детектив, драма, экранизация
Продолжительность: 5x ~ 01:30:00
Мировая премьера: 9 июня 2013г.
Перевод: Профессиональный (многоголосый, закадровый) [ТВЦ]
Оригинальный аудиопоток: английский
Режиссёры: Джон Стрикленд / John Strickland, Питер Лайдон / Peter Lydon, Том Воган / Tom Vaughan, Энди Уилсон / Andy Wilson, Хетти Макдональд / Hettie Macdonald-В ролях: Дэвид Суше, Хью Фрейзер, Филип Джексон, Полин Моран, Дэвид Йелленд, Зоэ Уонамейкер, Ричард Бебб, Джордж Литтл, Филип Маникам, Джона Джонс-Описание: Сериал по одноимённым детективным романам Агаты Кристи о бельгийском детективе Эркюле Пуаро.
- *8.7 *8.214Качество видео: HDTVRip (720p)
Контейнер: MKV
Видео кодек: AVC
Аудио кодек: AC3
Видео: 1280x720, ~ 2288 kbps avg, 25 fps
Аудио #1: Russian: 192 kbps, 2 ch, 48.0 kHz
Аудио #2: English: 384 kbps, 2 ch, 48.0 kHz
Cубтитры: русские, английские (.srt)
1. Слоны помнят всё / Elephants Can Remember
Ариадна Оливер изучает обстоятельства странной гибели старой школьной подруги и её мужа. Пуаро отказывается заниматься этим делом, будучи увлечён расследованием жестокого убийства знаменитого психиатра. Но вскоре он осознаёт, что две этих истории тесно связаны.
2. Большая четвёрка / The Big Four
Русский гроссмейстер загадочным образом умирает на международном шахматном чемпионате. В дело вовлечены политические интриги так называемой «Партии Мира» и её лидеров, мадам Оливье и Эйба Райланда. Заручившись поддержкой своих старых друзей Гастингса, Джеппа и мисс Лемон, а также репортёра и малоизвестной актрисы, Пуаро ведёт следствие, но вскоре вынужден вступить в опасную дуэль с «Большой Четвёркой», тайным обществом, ведущим собственную шахматную партию, пешками в которой служат знаменитые люди со всего мира.
3. Глупость мертвеца / Dead Man's Folly
Ариадну Оливер просят придумать игру в убийство для праздника в Девоне, но она, повинуясь своей интуиции, приглашает туда Пуаро. Её страхи воплощаются, когда во время праздника девочка, игравшая жертву преступления, оказывается убитой.
4. Подвиги Геракла / Labours of Hercules
Перед уходом на покой Пуаро решает раскрыть двенадцать последних дел, посвятив их подвигам своего знаменитого древнегреческого тёзки.
5. Занавес. Последнее дело Пуаро / Curtain
Слабеющий Пуаро возвращается в Стайлз вместе с Гастингсом примерно три десятилетия спустя после их первого совместного расследования там, в надежде предотвратить новые жертвы безжалостного и невероятно изобретательного серийного убийцы.
Общее
Уникальный идентификатор : 253851475125888273298319061998190031027 (0xBEFA04075A19EE149DAD430C2A7970B3)
Полное имя : Пуаро Агаты Кристи.2013\agatha.christies.poirot.s13.mkv
Формат : Matroska
Версия формата : Version 1
Размер файла : 1,79 Гбайт
Продолжительность : 1 ч. 27 м.
Общий поток : 2919 Кбит/сек
Дата кодирования : UTC 2013-11-03 15:04:26
Программа кодирования : mkvmerge v2.0.0 ('After The Rain Has Fallen') built on Jan 13 2007 19:58:56
Библиотека кодирования : libebml v0.7.7 + libmatroska v0.8.0
Видео
Идентификатор : 1
Формат : AVC
Формат/Информация : Advanced Video Codec
Профиль формата : [email protected]
Параметр CABAC формата : Да
Параметр ReFrames формата : 5 кадров
Идентификатор кодека : V_MPEG4/ISO/AVC
Продолжительность : 1 ч. 27 м.
Битрейт : 2285 Кбит/сек
Ширина : 1280 пикселей
Высота : 720 пикселей
Соотношение сторон : 16:9
Режим частоты кадров : Постоянный
Частота кадров : 25,000 кадров/сек
Цветовое пространство : YUV
Субдискретизация насыщенности : 4:2:0
Битовая глубина : 8 бит
Тип развёртки : Прогрессивная
Бит/(Пиксели*Кадры) : 0.099
Размер потока : 1,40 Гбайт (78%)
Библиотека кодирования : x264 core 138 r2358 9e941d1
Настройки программы : cabac=1 / ref=5 / deblock=1:0:0 / analyse=0x3:0x113 / me=umh / subme=8 / psy=1 / psy_rd=1.00:0.00 / mixed_ref=1 / me_range=16 / chroma_me=1 / trellis=1 / 8x8dct=1 / cqm=0 / deadzone=21,11 / fast_pskip=1 / chroma_qp_offset=-2 / threads=18 / lookahead_threads=3 / sliced_threads=0 / nr=0 / decimate=1 / interlaced=0 / bluray_compat=0 / constrained_intra=0 / bframes=3 / b_pyramid=2 / b_adapt=2 / b_bias=0 / direct=3 / weightb=1 / open_gop=0 / weightp=2 / keyint=250 / keyint_min=25 / scenecut=40 / intra_refresh=0 / rc_lookahead=50 / rc=crf / mbtree=1 / crf=18.0 / qcomp=0.60 / qpmin=0 / qpmax=69 / qpstep=4 / ip_ratio=1.40 / aq=1:1.00
Default : Да
Forced : Нет
Аудио #1
Идентификатор : 2
Формат : AC-3
Формат/Информация : Audio Coding 3
Расширение режима : CM (complete main)
Параметр Endianness формата : Big
Идентификатор кодека : A_AC3
Продолжительность : 1 ч. 27 м.
Вид битрейта : Постоянный
Битрейт : 192 Кбит/сек
Каналы : 2 канала
Расположение каналов : Front: L R
Частота : 48,0 КГц
Битовая глубина : 16 бит
Метод сжатия : С потерями
Размер потока : 121 Мбайт (7%)
Язык : Russian
Default : Да
Forced : Нет
Аудио #2
Идентификатор : 3
Формат : AC-3
Формат/Информация : Audio Coding 3
Расширение режима : CM (complete main)
Параметр Endianness формата : Big
Идентификатор кодека : A_AC3
Продолжительность : 1 ч. 27 м.
Вид битрейта : Постоянный
Битрейт : 384 Кбит/сек
Каналы : 2 канала
Расположение каналов : Front: L R
Частота : 48,0 КГц
Битовая глубина : 16 бит
Метод сжатия : С потерями
Размер потока : 242 Мбайт (13%)
Язык : English
Default : Нет
Forced : Нет
Скриншоты:
Download / Скачать

Хотите скачать бесплатно? Зарегистрируйтесь на сайте (ссылка на регистрацию). Pirat.ca - самый быстрый торрент трекер в рунете!

Как скачивать  ·   Что такое торрент  ·   Рейтинг и ограничения

DedMazdai

Пост 17-Июл-2014 19:16 (спустя 9 часов)

[Q] 

Огромное спасибо за этот шедевр кинематографа!
ИМХО, командор Дэвид Суше - один из самых талантливых современных актёров.
Отдельное спасибо за оригинальное аудио.
Лови бочку
[Профиль]  [ЛС] 

alenfr

Пост 04-Фев-2015 18:59 (спустя 6 месяцев 17 дней)

[Q] 

огромное спасибо ,РОМ В ТРЮМ !!!!

_________________
Кто может — делает, кто не может — учит.
______________________________________
Держи порох сухим, а шпагу острой.
[Профиль]  [ЛС] 

AnastasWolf ®

3475

Пост 05-Фев-2015 05:41 (спустя 10 часов)

[Q] 

DedMazdai, alenfr, aa

_________________
[Профиль]  [ЛС] 
Показать сообщения:    
Ответить на тему

Текущее время: Сегодня 04:29

Часовой пояс: GMT + 4



Вы не можете начинать темы
Вы не можете отвечать на сообщения
Вы не можете редактировать свои сообщения
Вы не можете удалять свои сообщения
Вы не можете голосовать в опросах
Вы не можете прикреплять файлы к сообщениям
Вы не можете скачивать файлы

▼ Вниз