ML
     
  Уважаемый Гость!
Вы можете поддержать проект и зарегистрироваться у наших партнеров - онлайн-стратегия MyLands. При регистрации в игре Вы получите код, который сможете активировать после регистрации на pirat.ca и получить 1000 дублонов.

Ваш код:
8b752b428cf60a012c159dcae592cd1392170115
 
     

Грань: Между жизнью и смертью / Border / Сезон: 1 / Серии: 1-9 (Хасимото Хадзимэ / Hajime Hashimoto) [2014 г., мистика, детектив, триллер, HDTVRip] VO ([Екатерина Юрьева] (GREEN TEA))

Ответить на тему
 
Автор
Сообщение

Пост 20-Июл-2014 11:34

[Q] 

Pavlin

Лоцман

-Грань: Между жизнью и смертью / Border-- Производство: Япония
Жанр: мистика, детектив, триллер
Год выпуска: 2014 г.
Продолжительность: 00:59:00
Перевод: Любительский (одноголосый, закадровый)
Режиссер: Хасимото Хадзимэ / Hajime Hashimoto, Хатано Такафуми / Takafumi Hatano.-В ролях: Огури Шун, Аоки Мунетака, Хару, Эндо Кеничи, Фурута Арата, Такито Кеничи, Номагучи Тору и др.-Описание: Ишикава Анго работает детективом. Он умен, наблюдателен и крайне амбициозен. Все свои силы он отдает работе, поэтому с личной жизнью у него совершенно не ладится.Как-то раз в полицейский участок поступает известие, что был убит бывший полицейский. Ишикава отправляется на место преступления, где в него стреляет пытающийся скрыться преступник. Ишикава получает тяжелое ранение в голову и оказывается между жизнью и смертью. Попав на "другую сторону", он задает себе вопрос: "Куда люди попадают после смерти?" и решает, что он не хочет умирать. Судьба дает детективу второй шанс, и Ишикава выживает, однако, теперь ему придется жить с пулей в голове.Происходит новое убийство. На месте преступления Ишикава встречает мальчика, который выглядит точно также, как и жертва преступления. Скоро выясняется, что мальчика видит только он. Оказалось, что после ранения у Ишикавы появилась способность видеть и общаться с мертвыми. Приобретенную способность детектив использует, чтобы расследовать дела.
-
Релиз: группа : GREEN TEA
Перевод: Мария Беликова
Работа со звуком: Екатерина Юрьева
Качество видео: HDTVRip
Контейнер: AVI
Видео кодек: DivX
Аудио кодек: MP3
Видео: 720x400 (1.80:1), 29.970 fps, XviD build 64 ~1145 kbps avg, 0.13 bit/pixel
Аудио: 48 kHz, MPEG Layer 3, 2 ch, ~192.00 kbps avg
Cубтитры: отсутствуют
Сезон : 1
Серии: 1-9
Общее
Полное имя : D:\[GREEN TEA] Грань. Между жизнью и смертью (400р)\Грань. Между жизнью и смертью_400_01.avi
Формат : AVI
Формат/Информация : Audio Video Interleave
Размер файла : 572 Мбайт
Продолжительность : 59 м.
Общий поток : 1352 Кбит/сек
Программа кодирования : Lavf54.63.104
Видео
Идентификатор : 0
Формат : xvid
Идентификатор кодека : xvid
Продолжительность : 59 м.
Битрейт : 1146 Кбит/сек
Ширина : 720 пикселей
Высота : 400 пикселей
Соотношение сторон : 16:9
Частота кадров : 29,970 кадров/сек
Бит/(Пиксели*Кадры) : 0.133
Размер потока : 485 Мбайт (85%)
Аудио
Идентификатор : 1
Формат : MPEG Audio
Версия формата : Version 1
Профиль формата : Layer 3
Режим : Joint stereo
Идентификатор кодека : 55
Идентификатор кодека/Подсказка : MP3
Продолжительность : 59 м.
Вид битрейта : Постоянный
Битрейт : 192 Кбит/сек
Каналы : 2 канала
Частота : 48,0 КГц
Метод сжатия : С потерями
Размер потока : 81,3 Мбайт (14%)
Выравнивание : Соединение по промежуткам
Продолжительность промежутка : 24 мс. (0,72 видеокадр)
Download / Скачать

Хотите скачать бесплатно? Зарегистрируйтесь на сайте (ссылка на регистрацию). Pirat.ca - самый быстрый торрент трекер в рунете!

Как скачивать  ·   Что такое торрент  ·   Рейтинг и ограничения



Последний раз редактировалось: Pavlin (2014-07-20 16:44), всего редактировалось 2 раз(а)

Пост 21-Июл-2014 12:03 (спустя 1 день)

Топик был перенесен из форума Зарубежные сериалы (Трюм) в форум Зарубежные сериалы
kugesan
 
Показать сообщения:    
Ответить на тему

Текущее время: Сегодня 06:19

Часовой пояс: GMT + 4



Вы не можете начинать темы
Вы не можете отвечать на сообщения
Вы не можете редактировать свои сообщения
Вы не можете удалять свои сообщения
Вы не можете голосовать в опросах
Вы не можете прикреплять файлы к сообщениям
Вы не можете скачивать файлы

▼ Вниз