ML
     
  Уважаемый Гость!
Вы можете поддержать проект и зарегистрироваться у наших партнеров - онлайн-стратегия MyLands. При регистрации в игре Вы получите код, который сможете активировать после регистрации на pirat.ca и получить 1000 дублонов.

Ваш код:
73640f24f8a0f579e128ea7346fd2db2b1009143
 
     

Налёт / Braquo / Сезон: 3 / Полный / Серии: 8 из 8 (Оливье Маршаль / Olivier Marchal, ...) [2009 г., триллер, криминал, WEB-DLRip] MVO (BaibaKo) + Original (Fre)

Ответить на тему
 
Автор
Сообщение

Пост 21-Июл-2014 20:48

[Q] 

kugesan

-Налёт / Braquo-- Производство: Франция
Жанр: триллер, криминал
Год выпуска: 2009 г.-Мировая премьера: 12 октября 2009, ...-Релиз:
Перевод: Многоголосый закадровый, профессиональный
Оригинальный аудиопоток: французский
-
Режиссер: Оливье Маршаль / Olivier Marchal, Фредерик Шёндёрфер / Frédéric Schoendoerffer, Филипп Аим / Philippe Haïm, ...-В ролях:
Жан-Юг Англад, Николя Дювошель, Джозеф Малерба, Кяроль Роше, Ален Фиглаж, Самюэль Ле Бьян, Паскаль Элсо, Жоэль Лефрансуа, Софи Брусталь-Описание:
Жизнь четверых сотрудников судебной полиции Парижского региона резко меняется, когда их друг и коллега Макс, несправедливо обвиненный, совершает самоубийство. С этого момента четверка начинает вести собственное расследование, чтобы восстановить справедливость и честное имя друга — даже если при этом им приходится рисковать и обходить закон.-Сезон: 3
Серии: 8 из 8 серий
Продолжительность: ~ 00:52:00 мин серия-Качество видео: WEB-DLRip
Контейнер: AVI
Видео кодек: XviD
Аудио кодек: MP3
Видео: MPEG-4 Visual at 1500 Кбит/сек: 720 x 400 (1.800) at 25.000 fps: 0.21 Бит/Пиксели
Аудио Rus: MPEG Audio at 192 Кбит/сек, 2 канала, 48,0 КГц |BaibaKo|
Аудио Fre: MPEG Audio at 192 Кбит/сек: 2 канала, 48,0 КГц |Original|
Cубтитры: отсутствуют
-
-
  • Невзгода (Affliction)
  • Наши похороны (Nos funérailles)
  • Одесса (Odessa)
  • Стукач (Stoukatch)
  • Благодатная земля (Le lait et le miel)
  • Пролог (Prologue)
  • Андреас (Andreas)
  • Между землёй и адом (Entre la terre et l'enfer)
-
Код:
Общее
Полное имя                               : E:\_Сериалы\_NeW_\Braquo.s03e01.BDRip.XviD.Rus.Fre.BaibaKo.tv.avi
Формат                                   : AVI
Формат/Информация                        : Audio Video Interleave
Размер файла                             : 707 Мбайт
Продолжительность                        : 52 м.
Общий поток                              : 1898 Кбит/сек
Программа кодирования                    : VirtualDubMod 1.5.10.2 (build 2540/release)
Библиотека кодирования                   : VirtualDubMod build 2540/release
Видео
Идентификатор                            : 0
Формат                                   : MPEG-4 Visual
Профиль формата                          : Advanced [email protected]
Параметр BVOP формата                    : 2
Параметр QPel формата                    : Нет
Параметр GMC формата                     : Без точки перехода
Параметр матрицы формата                 : Default (H.263)
Идентификатор кодека                     : XVID
Идентификатор кодека/Подсказка           : XviD
Продолжительность                        : 52 м.
Битрейт                                  : 1500 Кбит/сек
Ширина                                   : 720 пикселей
Высота                                   : 400 пикселей
Соотношение сторон                       : 16:9
Частота кадров                           : 25,000 кадров/сек
Цветовое пространство                    : YUV
Субдискретизация насыщенности            : 4:2:0
Битовая глубина                          : 8 бит
Тип развёртки                            : Прогрессивная
Метод сжатия                             : С потерями
Бит/(Пиксели*Кадры)                      : 0.208
Размер потока                            : 559 Мбайт (79%)
Библиотека кодирования                   : XviD 1.2.1 (UTC 2008-12-04)
Аудио #1
Идентификатор                            : 1
Формат                                   : MPEG Audio
Версия формата                           : Version 1
Профиль формата                          : Layer 3
Режим                                    : Joint stereo
Идентификатор кодека                     : 55
Идентификатор кодека/Подсказка           : MP3
Продолжительность                        : 52 м.
Вид битрейта                             : Постоянный
Битрейт                                  : 192 Кбит/сек
Каналы                                   : 2 канала
Частота                                  : 48,0 КГц
Метод сжатия                             : С потерями
Размер потока                            : 71,5 Мбайт (10%)
Выравнивание                             : Соединение по промежуткам
Продолжительность промежутка             : 40  мс. (1,00 видеокадр)
Время предзагрузки промежутка            : 504  мс.
Аудио #2
Идентификатор                            : 2
Формат                                   : MPEG Audio
Версия формата                           : Version 1
Профиль формата                          : Layer 3
Режим                                    : Joint stereo
Идентификатор кодека                     : 55
Идентификатор кодека/Подсказка           : MP3
Продолжительность                        : 52 м.
Вид битрейта                             : Постоянный
Битрейт                                  : 192 Кбит/сек
Каналы                                   : 2 канала
Частота                                  : 48,0 КГц
Метод сжатия                             : С потерями
Размер потока                            : 71,5 Мбайт (10%)
Выравнивание                             : Соединение по промежуткам
Продолжительность промежутка             : 40  мс. (1,00 видеокадр)
Время предзагрузки промежутка            : 504  мс.
Библиотека кодирования                   : LAME3.99.5
-
-Скриншоты:
-
-Добавлена восьмая, заключительная, серия второго сезона
Download / Скачать

Хотите скачать бесплатно? Зарегистрируйтесь на сайте (ссылка на регистрацию). Pirat.ca - самый быстрый торрент трекер в рунете!

Как скачивать  ·   Что такое торрент  ·   Рейтинг и ограничения



Последний раз редактировалось: kugesan (2014-07-25 11:21), всего редактировалось 2 раз(а)

kugesan ®

56646

Пост 25-Июл-2014 11:22 (спустя 3 дня)

[Q] 

Добавлена восьмая, заключительная, серия второго сезона

_________________

В мире две бесконечности: вселенная и человеческая глупость - Альберт Эйнштен
«Можно вытащить человека из грязи, но нельзя вытащить грязь из человека»!
[Профиль]  [ЛС] 
Показать сообщения:    
Ответить на тему

Текущее время: Сегодня 22:37

Часовой пояс: GMT + 4



Вы не можете начинать темы
Вы не можете отвечать на сообщения
Вы не можете редактировать свои сообщения
Вы не можете удалять свои сообщения
Вы не можете голосовать в опросах
Вы не можете прикреплять файлы к сообщениям
Вы не можете скачивать файлы

▼ Вниз