ML
     
  Уважаемый Гость!
Вы можете поддержать проект и зарегистрироваться у наших партнеров - онлайн-стратегия MyLands. При регистрации в игре Вы получите код, который сможете активировать после регистрации на pirat.ca и получить 1000 дублонов.

Ваш код:
5f4e94775bc0501caff7b254e79328d304c817d9
 
     

Штамм / The Strain / Сезон: 1 / Серии: 1-13 (13) (Гильермо дель Торо / Guillermo del Toro, ...) [2014 г., ужасы, фантастика, драма, WEB-DL, 720p] 3хMVO (AlexFilm, LostFilm, NewStudio) + Original (Eng) + Sub (Eng)

Ответить на тему
 
Автор
Сообщение

Пост 04-Авг-2014 21:39

[Q] 

TERMOS

Легенда

-Штамм / The Strain
(1 сезон)
-- Производство: США
Жанр: ужасы, фантастика, драма
Год выпуска: 2014 г.
Продолжительность: 13x ~00:43:00
Мировая премьера: 13 июля 2014
Перевод: Профессиональный (многоголосый, закадровый) [AlexFilm]
Перевод 2: Профессиональный (многоголосый, закадровый) [LostFilm]
Перевод 3: Профессиональный (многоголосый, закадровый) [NewStudio]
Оригинальный аудиопоток: английский
Режиссер: Гильермо дель Торо / Guillermo del Toro, Дэвид Семел / David Semel, Кит Гордон / Keith Gordon, ...-В ролях: Кори Столл, Миа Маэстро, Дэвид Брэдли, Рихард Заммель, Шон Эстин, Джонатан Хайд, Кевин Дюран, Джек Кеси, Натали Браун, Бен Хайленд-Описание: Концептуальный хоррор от знаменитого мексиканского режиссёра Гильермо дель Торо в корне изменит отношение к вампирам, как к милым созданиям, способным любить и страдать. Вампиризм — это опасный заразный вирус, штамм которого содержит следы чудовищ древнего мира. Если глава Нью-Йоркского центра по контролю заболеваний и его коллеги не остановят распространение этого ужасного вируса, превращающего людей в невиданных доселе кровожадных монстров, человечество попадёт под угрозу вымирания.
- - -Качество видео: WEB-DL
Контейнер: MKV
Стандарт разрешения: 720p
Видео кодек: H.264/AVC
Аудио кодек: AC3
Видео: 1280×720, 23.976 fps, ~4000 kbps avg
Аудио: Russian: 48 kHz, AC3, 3/2 (L,C,R,l,r) + LFE ch, ~384.00 kbps avg |Многоголосый закадровый, AlexFilm|
Аудио #2: Russian: 48 kHz, AC3, 3/2 (L,C,R,l,r) + LFE ch, ~384.00 kbps avg |Многоголосый закадровый, LostFilm|
Аудио #3: Russian: 48 kHz, AC3, 3/2 (L,C,R,l,r) + LFE ch, ~384.00 kbps avg |Многоголосый закадровый, NewStudio|
Аудио #4: English: 48 kHz, AC3, 3/2 (L,C,R,l,r) + LFE ch, ~384.00 kbps avg
Cубтитры: английские
01: Night Zero / Начало
02: The Box / Ящик
03: Gone Smooth / Процесс пошёл
04: It's Not for Everyone / Не для всех
05: Runaways / Сбежавшие
06: Occultation / Затмение
07: For Services Rendered / За оказанные услуги
08: Creatures of the Night / Создания ночи
09: The Disappeared / Исчезнувшие
10: Loved Ones / Любимые
11: The Third Rail / Контактный рельс
12: Last Rites / Отпевание
13: The Master / Хозяин
Код:
General
Complete name                    : Y:\Uploads\Pirat.Ca\The Strain - Season 01 (2014)[720p.WEB-DL]\The.Strain.S01E02.720p.WEB-DL.3xRus.Eng.HDCLUB.mkv
Format                           : Matroska
File size                        : 1.68 GiB
Duration                         : 43mn 32s
Overall bit rate                 : 5 510 Kbps
Movie name                       : The Strain | Season 1 (2013) | 02: The Box (Release for HDCLUB)
Encoded date                     : UTC 2010-02-22 21:41:31
Writing application              : mkvmerge v5.9.0 ('On The Loose') built on Dec  9 2012 15:37:01
Writing library                  : libebml v1.3.0 + libmatroska v1.4.0
Video
ID                               : 1
Format                           : AVC
Format/Info                      : Advanced Video Codec
Format profile                   : [email protected]
Format settings, CABAC           : No
Format settings, ReFrames        : 2 frames
Muxing mode                      : Container [email protected]
Codec ID                         : V_MPEG4/ISO/AVC
Duration                         : 43mn 32s
Bit rate mode                    : Variable
Bit rate                         : 3 864 Kbps
Width                            : 1 280 pixels
Height                           : 720 pixels
Display aspect ratio             : 16:9
Frame rate                       : 23.976 fps
Color space                      : YUV
Chroma subsampling               : 4:2:0
Bit depth                        : 8 bits
Scan type                        : Progressive
Bits/(Pixel*Frame)               : 0.175
Stream size                      : 1.18 GiB (70%)
Title                            : The Strain - Season 1 (2013): 02 - The Box / Ящик
Language                         : English
Color primaries                  : BT.709-5, BT.1361, IEC 61966-2-4, SMPTE RP177
Transfer characteristics         : BT.709-5, BT.1361
Matrix coefficients              : BT.709-5, BT.1361, IEC 61966-2-4 709, SMPTE RP177
Audio #1
ID                               : 2
Format                           : AC-3
Format/Info                      : Audio Coding 3
Mode extension                   : CM (complete main)
Codec ID                         : A_AC3
Duration                         : 43mn 32s
Bit rate mode                    : Constant
Bit rate                         : 384 Kbps
Channel(s)                       : 6 channels
Channel positions                : Front: L C R, Side: L R, LFE
Sampling rate                    : 48.0 KHz
Bit depth                        : 16 bits
Stream size                      : 120 MiB (7%)
Title                            : DD 5.1 @ 384 kbps (AlexFilm)
Language                         : Russian
Audio #2
ID                               : 3
Format                           : AC-3
Format/Info                      : Audio Coding 3
Mode extension                   : CM (complete main)
Codec ID                         : A_AC3
Duration                         : 43mn 32s
Bit rate mode                    : Constant
Bit rate                         : 384 Kbps
Channel(s)                       : 6 channels
Channel positions                : Front: L C R, Side: L R, LFE
Sampling rate                    : 48.0 KHz
Bit depth                        : 16 bits
Stream size                      : 120 MiB (7%)
Title                            : DD 5.1 @ 384 kbps (LostFilm)
Language                         : Russian
Audio #3
ID                               : 4
Format                           : AC-3
Format/Info                      : Audio Coding 3
Mode extension                   : CM (complete main)
Codec ID                         : A_AC3
Duration                         : 43mn 32s
Bit rate mode                    : Constant
Bit rate                         : 384 Kbps
Channel(s)                       : 6 channels
Channel positions                : Front: L C R, Side: L R, LFE
Sampling rate                    : 48.0 KHz
Bit depth                        : 16 bits
Stream size                      : 120 MiB (7%)
Title                            : DD 5.1 @ 384 kbps (NewStudio)
Language                         : Russian
Audio #4
ID                               : 5
Format                           : AC-3
Format/Info                      : Audio Coding 3
Mode extension                   : CM (complete main)
Codec ID                         : A_AC3
Duration                         : 43mn 32s
Bit rate mode                    : Constant
Bit rate                         : 384 Kbps
Channel(s)                       : 6 channels
Channel positions                : Front: L C R, Side: L R, LFE
Sampling rate                    : 48.0 KHz
Bit depth                        : 16 bits
Video delay                      : 29ms
Stream size                      : 120 MiB (7%)
Title                            : DD 5.1 @ 384 kbps
Language                         : English
Text
ID                               : 6
Format                           : UTF-8
Codec ID                         : S_TEXT/UTF8
Codec ID/Info                    : UTF-8 Plain Text
Language                         : English
Download / Скачать

Хотите скачать бесплатно? Зарегистрируйтесь на сайте (ссылка на регистрацию). Pirat.ca - самый быстрый торрент трекер в рунете!

Как скачивать  ·   Что такое торрент  ·   Рейтинг и ограничения



Последний раз редактировалось: TERMOS (2014-10-12 13:52), всего редактировалось 9 раз(а)

nox4y

Лоцман

Пост 05-Авг-2014 10:52 (спустя 13 часов)

[Q] 

Блин на скрин обложки смотреть больно
[Профиль]  [ЛС] 

TERMOS ®

Легенда

11987

Пост 10-Авг-2014 14:59 (спустя 5 дней)

[Q] 

Добавлена 4-я серия. Обновите торрент-файл!

_________________
[Профиль]  [ЛС] 

TERMOS ®

Легенда

11987

Пост 18-Авг-2014 18:09 (спустя 8 дней)

[Q] 

Добавлена 5-я серия. Обновите торрент-файл!

_________________
[Профиль]  [ЛС] 

TERMOS ®

Легенда

11987

Пост 12-Сен-2014 17:17 (спустя 24 дня)

[Q] 

Добавлена 6-я серия. Обновите торрент-файл!

_________________
[Профиль]  [ЛС] 

FAGOT100

Штурман

6

Пост 12-Сен-2014 19:49 (спустя 2 часа 32 минуты)

[Q] 

Отличный сериал.Необычный взгляд на вампиров.
[Профиль]  [ЛС] 

Region-89

Гроза морей

550

Пост 13-Сен-2014 00:27 (спустя 4 часа)

[Q] 

Господа пираты! в какой озвучке лучше смотреть? (пока не смотрел ни одной серии!) Раздающему респект! и Лови бочку

_________________
[Профиль]  [ЛС] 

TERMOS ®

Легенда

11987

Пост 13-Сен-2014 06:53 (спустя 6 часов)

[Q] 

Добавлена 7-я серия. Обновите торрент-файл!
Добавлено спустя 1 минута 38 секунд:
579743Господа пираты! в какой озвучке лучше смотреть? (пока не смотрел ни одной серии!)
Да кому как... Я предпочитаю озвучку Лоста.

_________________
[Профиль]  [ЛС] 

lkas1010

Корсар

Пост 15-Сен-2014 21:18 (спустя 2 дня 14 часов)

[Q] 

Хорошее кино. Смотрел с озвучкой Alexfilm.Отличная озвучка. Спасибо!!!
[Профиль]  [ЛС] 

TERMOS ®

Легенда

11987

Пост 16-Сен-2014 19:37 (спустя 22 часа)

[Q] 

Добавлена 8-9-я серии, заменена 3-я серия (пропер озвучки от AlexFilm). Обновите торрент-файл!

_________________
[Профиль]  [ЛС] 

TERMOS ®

Легенда

11987

Пост 22-Сен-2014 00:58 (спустя 5 дней)

[Q] 

Добавлена 10-я серия, заменены 4-ая и 5-ая серии. Обновите торрент-файл!

_________________
[Профиль]  [ЛС] 

TERMOS ®

Легенда

11987

Пост 29-Сен-2014 06:11 (спустя 7 дней)

[Q] 

Добавлена 11-я серия, заменена 1-ая серия (улучшено наложение всех 3-х озвучек). Обновите торрент-файл!

_________________
[Профиль]  [ЛС] 

Oleksiy85

Шкипер

Пост 29-Сен-2014 21:07 (спустя 14 часов)

[Q] 

поддайте газку плиз
[Профиль]  [ЛС] 

TERMOS ®

Легенда

11987

Пост 05-Окт-2014 16:13 (спустя 5 дней)

[Q] 

Добавлена 12-я серия. Обновите торрент-файл!

_________________
[Профиль]  [ЛС] 

malefik

Корсар

Пост 05-Окт-2014 16:26 (спустя 12 минут)

[Q] 

у мужиков после заражения член отваливался....что отваливалось у женщин???
[Профиль]  [ЛС] 

TERMOS ®

Легенда

11987

Пост 12-Окт-2014 13:54 (спустя 6 дней)

[Q] 

Добавлена 13-я серия, заменена 2-я серия (улучшено наложение всех 3-х озвучек). Финал сезона! Обновите торрент-файл!

_________________
[Профиль]  [ЛС] 

The_wild

Лоцман

Пост 12-Окт-2014 16:10 (спустя 2 часа 16 минут)

[Q] 

Кино полная хрень, хотя до смотрела т.к. в жанре ужасы/зомби/заражение вроде ничего не было из нового.
все ждала развития событий, но нет...
+ спам ввиде концлагеря, старого еврея и нациста, резного гроба, башен близнецов (это уже вообще в открытую пахло трешаком)
Ко всему прочему парень главный герой и его коллега играли очень плохо. Крысолов из этой компании получше.
До смотрела аж до 13 серии и что... а ничего, эта муть ничем не завершилась, а по всей видимости будет еще и второй сезон
Добавлено спустя 29 секунд:
588116у мужиков после заражения член отваливался....что отваливалось у женщин???
У зрителя отваливался мозг..
[Профиль]  [ЛС] 

DGalei

Морской Волк

Пост 12-Окт-2014 23:47 (спустя 7 часов)

[Q] 

Супер! Пиратка рулез!!! !!!
[Профиль]  [ЛС] 

Vintorezov REG 39

Легенда

176

Пост 01-Ноя-2014 01:27 (спустя 19 дней)

[Q] 

Скучноватое кино.
[Профиль]  [ЛС] 
Показать сообщения:    
Ответить на тему

Текущее время: Сегодня 15:32

Часовой пояс: GMT + 4



Вы не можете начинать темы
Вы не можете отвечать на сообщения
Вы не можете редактировать свои сообщения
Вы не можете удалять свои сообщения
Вы не можете голосовать в опросах
Вы не можете прикреплять файлы к сообщениям
Вы не можете скачивать файлы

▼ Вниз