ML
     
  Уважаемый Гость!
Вы можете поддержать проект и зарегистрироваться у наших партнеров - онлайн-стратегия MyLands. При регистрации в игре Вы получите код, который сможете активировать после регистрации на pirat.ca и получить 1000 дублонов.

Ваш код:
cc3be08b7507661c03e0a2f582d0da3a659ea55a
 
     

Halo: Сумерки / Halo: Nightfall / Сезон: 1 / Полный / Серии: 5 из 5 (Серджо Мимика-Геззан / Sergio Mimica-Gezzan) [2014 г., фантастика, боевик, триллер, приключения, ..., WEB-DL 1080р] MVO (AlexFilm) + Original (Eng)

Ответить на тему
 
Автор
Сообщение

Пост 05-Авг-2014 23:21

[Q] 

kugesan

-Halo: Сумерки / Halo: Nightfall-- Производство: США
Жанр: фантастика, боевик, триллер, приключения, ...
Год выпуска: 2014 г.-Премьера (мир): 11 ноября 2014-Озвучка: Студия
Перевод: Многоголосый закадровый, профессиональный
Оригинальный аудиопоток: английский-Перевод: Константин Кривоногов
Озвучка: Ирина Воронова, Михаил Суслов, Владимир Курдов, Константин Погодаев
Монтаж и сведение звука: Михаил Шорыгин
Постер: Андрей Шапал-Режиссер: Серджо Мимика-Геззан / Sergio Mimica-Gezzan-В ролях: Алексис Родни, Александр Бхат, Сара Армстронг, Александра Бхат, Шон Блэйни, Шейнин Бреннан, Кристина Чонг, Майк Колтер, Кристиан Райан Контрерарс ...-Описание:
Действие сериала начнётся с событий на одной из Внешних колоний человечества, Седре. Отряд Службы военной разведки под командованием капитан-лейтенанта Джеймсона Локка высажен на планету с целью расследовать предполагаемую террористическую деятельность. Отряд подвергается атаке радикалов, и становится известно, что те пытаются использовать некое биологическое оружие, способное влиять только на людей. Ради своего выживания оперативники отряда вынуждены работать вместе с одним из местных командиров Рэндаллом Аикеном. Оставаясь на Седре, отряд обнаруживает инопланетный артефакт. Тем временем на орбиту колонии прибывает частично функциональная секция уничтоженной Установки 04.-Сезон: 1
Серии: 5 из 5 серий
Продолжительность: ~ 00:27:00 мин серия-Качество видео: WEB-DL 1080р
Формат: MKV
Видео кодек: AVC
Аудио кодек: AC3
Видео: AVC at 5000 Кбит/сек: 1920 x 800 (2.400) at 29.970 fps
Аудио Rus: AC-3 at 192 Кбит/сек: 2 канала, 48,0 КГц |AlexFilm|
Аудио Eng: AC-3 at 192 Кбит/сек: 2 канала, 48,0 КГц |Original|
Cубтитры: отсутствуют
- -
Общее
Уникальный идентификатор : 213548815772718989956466319624193088509 (0xA0A80181E8D35A218EA0702B57629BFD)
Полное имя : E:\_Сериалы\_Сериалы\Halo Сумерки\Halo Nightfall - Season 1 (AlexFilm) WEB-DL 1080p\Halo.Nightfall.S01E01.Chapter.One.WEB-DL.1080p.Rus.Eng.AlexFilm.mkv
Формат : Matroska
Версия формата : Version 4 / Version 2
Размер файла : 1,08 Гбайт
Продолжительность : 28 м.
Общий поток : 5385 Кбит/сек
Дата кодирования : UTC 2014-12-11 22:56:37
Программа кодирования : mkvmerge v7.1.0 ('Good Love') 64bit built on Jul 27 2014 13:06:55
Библиотека кодирования : libebml v1.3.0 + libmatroska v1.4.1
DURATION : 00:28:48.000000000
NUMBER_OF_FRAMES : 54000
NUMBER_OF_BYTES : 41472000
_STATISTICS_WRITING_APP : mkvmerge v7.1.0 ('Good Love') 64bit built on Jul 27 2014 13:06:55
_STATISTICS_WRITING_DATE_UTC : 2014-12-11 22:56:37
_STATISTICS_TAGS : BPS DURATION NUMBER_OF_FRAMES NUMBER_OF_BYTES
Видео
Идентификатор : 1
Формат : AVC
Формат/Информация : Advanced Video Codec
Профиль формата : [email protected]
Параметр CABAC формата : Да
Параметр ReFrames формата : 5 кадров
Идентификатор кодека : V_MPEG4/ISO/AVC
Продолжительность : 28 м.
Битрейт : 5000 Кбит/сек
Ширина : 1920 пикселей
Высота : 800 пикселей
Соотношение сторон : 2,40:1
Режим частоты кадров : Постоянный
Частота кадров : 29,970 кадров/сек
Цветовое пространство : YUV
Субдискретизация насыщенности : 4:2:0
Битовая глубина : 8 бит
Тип развёртки : Прогрессивная
Бит/(Пиксели*Кадры) : 0.109
Размер потока : 1008 Мбайт (91%)
Библиотека кодирования : x264 core 142 r2431 ac76440
Настройки программы : cabac=1 / ref=5 / deblock=1:0:0 / analyse=0x3:0x133 / me=umh / subme=9 / psy=1 / psy_rd=1.00:0.00 / mixed_ref=1 / me_range=16 / chroma_me=1 / trellis=2 / 8x8dct=1 / cqm=0 / deadzone=21,11 / fast_pskip=1 / chroma_qp_offset=-2 / threads=12 / lookahead_threads=1 / sliced_threads=0 / nr=0 / decimate=1 / interlaced=0 / bluray_compat=0 / constrained_intra=0 / bframes=3 / b_pyramid=2 / b_adapt=2 / b_bias=0 / direct=3 / weightb=1 / open_gop=0 / weightp=2 / keyint=300 / keyint_min=29 / scenecut=40 / intra_refresh=0 / rc_lookahead=60 / rc=2pass / mbtree=1 / bitrate=5000 / ratetol=1.0 / qcomp=0.60 / qpmin=0 / qpmax=69 / qpstep=4 / cplxblur=20.0 / qblur=0.5 / ip_ratio=1.40 / aq=1:1.00
Язык : English
Default : Да
Forced : Нет
Аудио #1
Идентификатор : 2
Формат : AC-3
Формат/Информация : Audio Coding 3
Расширение режима : CM (complete main)
Параметр Endianness формата : Big
Идентификатор кодека : A_AC3
Продолжительность : 28 м.
Вид битрейта : Постоянный
Битрейт : 192 Кбит/сек
Каналы : 2 канала
Расположение каналов : Front: L R
Частота : 48,0 КГц
Битовая глубина : 16 бит
Метод сжатия : С потерями
Размер потока : 39,6 Мбайт (4%)
Заголовок : Rus by AlexFilm
Язык : Russian
Default : Да
Forced : Нет
Аудио #2
Идентификатор : 3
Формат : AC-3
Формат/Информация : Audio Coding 3
Расширение режима : CM (complete main)
Параметр Endianness формата : Big
Идентификатор кодека : A_AC3
Продолжительность : 28 м.
Вид битрейта : Постоянный
Битрейт : 192 Кбит/сек
Каналы : 2 канала
Расположение каналов : Front: L R
Частота : 48,0 КГц
Битовая глубина : 16 бит
Метод сжатия : С потерями
Размер потока : 39,6 Мбайт (4%)
Заголовок : Original
Язык : English
Default : Нет
Forced : Нет
-
-Скриншоты:
-
-
-
1. Открыть торрент
2. Снять галки с тех файлов торрента, которые мы не хотим закачивать. Оставляем только на нужных нам файлах (файле).
3. Нажать О.К.
В клиенте utorrent
Инструкция
1) Открыть торрент

2) Снять галки с тех файлов торрента, которые мы не хотим закачивать:
* либо вручную, снимая с каждого файла галку( скрин №1)
* либо, нажав кнопку "Снять метки (Select None)", сняв сразу со всех файлов(скрин №2)
№1

№2

Оставляем только на нужных нам файлах (файле).

3)Нажать О.К
-Добавлена пятая, заключительная, серия первого сезона
Download / Скачать

Хотите скачать бесплатно? Зарегистрируйтесь на сайте (ссылка на регистрацию). Pirat.ca - самый быстрый торрент трекер в рунете!

Как скачивать  ·   Что такое торрент  ·   Рейтинг и ограничения



Последний раз редактировалось: kugesan (2014-12-12 17:20), всего редактировалось 2 раз(а)

kugesan ®

56710

Пост 12-Дек-2014 14:57 (спустя 4 месяца 6 дней)

[Q] 

Добавлена пятая, заключительная серия первого сезона

_________________

В мире две бесконечности: вселенная и человеческая глупость - Альберт Эйнштен
«Можно вытащить человека из грязи, но нельзя вытащить грязь из человека»!
[Профиль]  [ЛС] 

Master Chief

Корсар

571

Пост 12-Дек-2014 20:55 (спустя 5 часов)

[Q] 

Забираю в коллекцию. Спасибо!!! Лови бочку

_________________
[Профиль]  [ЛС] 

kugesan ®

56710

Пост 12-Дек-2014 21:57 (спустя 1 час 2 минуты)

[Q] 

Приятного просмотра!!!

_________________

В мире две бесконечности: вселенная и человеческая глупость - Альберт Эйнштен
«Можно вытащить человека из грязи, но нельзя вытащить грязь из человека»!
[Профиль]  [ЛС] 

Master Chief

Корсар

571

Пост 13-Дек-2014 04:30 (спустя 6 часов)

[Q] 

Жду продолжения! Автору респект!!! Мне понравилось

_________________
[Профиль]  [ЛС] 

Bes_54

Лоцман

Пост 14-Дек-2014 22:23 (спустя 1 день 17 часов)

[Q] 

Таки посмотримс Лови бочку

_________________
Правильным курсом...
[Профиль]  [ЛС] 

kugesan ®

56710

Пост 14-Дек-2014 23:04 (спустя 40 минут)

[Q] 

Приятного просмотра!!!

_________________

В мире две бесконечности: вселенная и человеческая глупость - Альберт Эйнштен
«Можно вытащить человека из грязи, но нельзя вытащить грязь из человека»!
[Профиль]  [ЛС] 

Пост 19-Дек-2014 12:09 (спустя 4 дня)

Топик был перенесен из форума Сериалы в эфире в форум Зарубежные сериалы
Андря
 

Police_3000

Морской Волк

Пост 21-Дек-2014 03:14 (спустя 6 дней)

[Q] 

Не впечатлил, но за труды спасибо!!!
[Профиль]  [ЛС] 
Показать сообщения:    
Ответить на тему

Текущее время: Сегодня 05:04

Часовой пояс: GMT + 4



Вы не можете начинать темы
Вы не можете отвечать на сообщения
Вы не можете редактировать свои сообщения
Вы не можете удалять свои сообщения
Вы не можете голосовать в опросах
Вы не можете прикреплять файлы к сообщениям
Вы не можете скачивать файлы

▼ Вниз