ML
     
  Уважаемый Гость!
Вы можете поддержать проект и зарегистрироваться у наших партнеров - онлайн-стратегия MyLands. При регистрации в игре Вы получите код, который сможете активировать после регистрации на pirat.ca и получить 1000 дублонов.

Ваш код:
f612af22ea70acf5cbe90707ac5a076d215f8f7f
 
     

Секретные материалы / The X Files / Сезон: 1 / Серии: 0-23 (24) (Ким Мэннерс / Kim Manners, ...) [1993 г., фантастика, триллер, драма, детектив, BDRip, 720p] Dub (ТВ3) + DVO (REN-TV, 1+1) + MVO (Tycoon, OPT) + 2xAVO + Original (Eng) + Sub (Rus, Eng)

Ответить на тему
 
Автор
Сообщение

Пост 09-Авг-2014 09:57

[Q] 

TERMOS

Легенда

-Секретные материалы / The X Files
«Истина где-то рядом»
(1 сезон)
-- Производство: США, Канада
Жанр: фантастика, триллер, драма, детектив
Год выпуска: 1993 г.
Продолжительность: 24x ~00:43:00
Перевод:Профессиональный (многоголосый, закадровый) [ОРТ]
Перевод 2: Профессиональный (полное дублирование) [ТВ3]
Перевод 3: Профессиональный (двухголосый, закадровый) [REN-TV]
Перевод 4: Авторский (одноголосый, закадровый) [С.Визгунов]
Перевод 5: Авторский (одноголосый, закадровый) [Ю.Живов]
Перевод 6: Профессиональный (многоголосый, закадровый) [Tycoon]
Перевод 7: Профессиональный (двухголосый, закадровый) [1+1]
Оригинальный аудиопоток: английский
Режиссер: Ким Мэннерс / Kim Manners, Роб Боумен / Rob Bowman, Дэвид Наттер / David Nutter-В ролях: Джиллиан Андерсон, Дэвид Духовны, Митч Пилегги, Уильям Б. Дэвис, Николас Ли, Том Брэйдвуд, Дин Хаглунд, Брюс Харвуд, Дин Хэглунд, Николас Ли, Аннабет Гиш-Описание: Специальному агенту Дане Скалли, доктору и преподавателю академии ФБР в Вирджинии, поручают работу в паре с агентом Фоксом Малдером над проектом «Секретные материалы», архивом таинственных, нерешенных дел ФБР, которые зачастую связаны с паранормальными явлениями, случаями вампиризма и оборотничества, нападением генетических мутантов, свидетельствами о похищении людей пришельцами…
    Малдер верит в пришельцев и пытается убедить скептика Скалли, что не всё и не всегда поддаётся разумному объяснению. В своих дискуссиях Малдер и Скалли не столько стараются убедить друг друга, сколько получают удовольствие от самого общения. Постепенно первоначальное взаимное недоверие перерастает в дружбу, а чуть позже и в более глубокое чувство.
- -Качество видео: BDRip
Контейнер: MKV
Стандарт разрешения: 720p
Видео кодек: H.264/AVC
Аудио кодек: AC3, DTS
Видео: 1280x720, 23.976 fps, ~ 6500 Kbps avg
Аудио: (Rus) AC3, 48 kHz, 2/0 (L,R) ch, ~192 kbps - (многоголосый закадровый, ОРТ)
Аудио #2: (Rus) AC3, 48 kHz, 2/0 (L,R) ch, ~192 kbps - (дубляж, ТВ3)
Аудио #3: (Rus) AC3, 48 kHz, 2/0 (L,R) ch, ~192 kbps - (двухголосый закадровый, REN-TV)
Аудио #4: (Rus) 48 kHz/16-bit, DTS, 3/2 (L,C,R,l,r) + LFE ch, ~1536.00 kbps avg - (одноголосый закадровый, С.Визгунов)
Аудио #5: (Rus) 48 kHz/16-bit, DTS, 3/2 (L,C,R,l,r) + LFE ch, ~1536.00 kbps avg - (одноголосый закадровый, Ю.Живов)
Аудио #6: (Rus) AC3, 48 kHz, 2/0 (L,R) ch, ~192.00 kbps - (многоголосый закадровый, Tycoon)
Аудио #7:(Ukr) 48 kHz, AC3, 2/0 (L,R) ch, ~192.00 kbps avg - (двухголосый закадровый, 1+1)
Аудио #8: (Eng) 48 kHz/16-bit, DTS, 3/2 (L,C,R,l,r) + LFE ch, ~1536.00 kbps avg
Cубтитры: Russian (Forced, ASS), Russian (lostrator, ASS), English, English (SDH)
00. Пилотная серия / Pilot
01. Глубокая глотка / Deep Throat
02. Узкий / Squeeze
03. Канал / Conduit
04. Дьявол из Джерси / The Jersey Devil
05. Тени / Shadows
06. Призрак в машине / Ghost in the Machine
07. Лёд / Ice
08. Космос / Space
09. Падший ангел / Fallen Angel
10. Ева / Eve
11. Огонь / Fire
12. Где-то за морем / Beyond the Sea
13. Транссексуал / Gender Bender
14. Лазарь / Lazarus
15. Юный сердцем / Young at Heart
16. В.Б.О. / E.B.E.
17. Чудотворец / Miracle Man
18. Сущности / Shapes
19. И пала тьма / Darkness Falls
20. Тумс / Tooms
21. Заново рождённый / Born Again
22. Роланд / Roland
23. Колба Эрленмейера / The Erlenmeyer Flask
Код:
General
Unique ID                   : 197298170379754262389801800559769458174 (0x946E3ED48C2CC06882AED56DC67895FE)
Complete name               : W:\Uploads\Pirat.Ca\The X-Files - Season 01 (1993)[720p.BluRay.6xRus.Ukr.Eng]\The.X-Files.01x00.Pilot.720p.BluRay.DTS.6xRus.Ukr.Eng.HDCLUB.mkv
Format                      : Matroska
Format version              : Version 4 / Version 2
File size                   : 4.46 GiB
Duration                    : 48mn 14s
Overall bit rate            : 13.2 Mbps
Movie name                  : The X-Files Season 1: Pilot
Encoded date                : UTC 2016-01-08 17:23:25
Writing application         : mkvmerge v6.0.0 ('Coming Up For Air') built on Jan 20 2013 09:52:00
Writing library             : libebml v1.3.0 + libmatroska v1.4.0
Attachements                : 7fonts.ru_Xfiles.ttf / 7785.ttf / AmericanTypewriter.ttc / GillSans.ttc / Iris_Normal.ttf / times.ttf / X-files2.ttf
DURATION                    : 00:45:57.505000000
NUMBER_OF_FRAMES            : 533
NUMBER_OF_BYTES             : 22033
_STATISTICS_WRITING_APP     : mkvmerge v8.7.0 ('All of the above') 64bit
_STATISTICS_WRITING_DATE_UT : 2016-01-06 10:41:30
_STATISTICS_TAGS            : BPS DURATION NUMBER_OF_FRAMES NUMBER_OF_BYTES
Video
ID                          : 1
Format                      : AVC
Format/Info                 : Advanced Video Codec
Format profile              : [email protected]
Format settings, CABAC      : Yes
Format settings, ReFrames   : 9 frames
Codec ID                    : V_MPEG4/ISO/AVC
Duration                    : 48mn 14s
Bit rate                    : 7 480 Kbps
Width                       : 1 280 pixels
Height                      : 720 pixels
Display aspect ratio        : 16:9
Frame rate mode             : Constant
Frame rate                  : 23.976 fps
Color space                 : YUV
Chroma subsampling          : 4:2:0
Bit depth                   : 8 bits
Scan type                   : Progressive
Bits/(Pixel*Frame)          : 0.338
Stream size                 : 2.52 GiB (57%)
Title                       : The.X-Files.S01E01.720p.BluRay.DD5.1.x264-DON
Writing library             : x264 core 148 r2638kMod 7599210
Encoding settings           : cabac=1 / ref=9 / deblock=1:-3:-3 / analyse=0x3:0x113 / me=umh / subme=11 / psy=1 / fade_compensate=0.00 / psy_rd=1.00:0.00 / mixed_ref=1 / me_range=32 / chroma_me=1 / trellis=2 / 8x8dct=1 / cqm=0 / deadzone=21,11 / fast_pskip=0 / chroma_qp_offset=-3 / threads=12 / lookahead_threads=3 / sliced_threads=0 / nr=0 / decimate=1 / interlaced=0 / bluray_compat=0 / constrained_intra=0 / fgo=0 / bframes=12 / b_pyramid=2 / b_adapt=2 / b_bias=0 / direct=3 / weightb=1 / open_gop=0 / weightp=2 / keyint=230 / keyint_min=23 / scenecut=40 / intra_refresh=0 / rc_lookahead=40 / rc=crf / mbtree=0 / crf=18.5000 / qcomp=0.65 / qpmin=0 / qpmax=69 / qpstep=4 / vbv_maxrate=50000 / vbv_bufsize=62500 / crf_max=0.0 / nal_hrd=none / filler=0 / ip_ratio=1.40 / pb_ratio=1.30 / aq=3:0.85
Language                    : English
Default                     : Yes
Forced                      : No
DURATION                    : 00:48:14.225000000
NUMBER_OF_FRAMES            : 69392
NUMBER_OF_BYTES             : 2795302773
_STATISTICS_WRITING_APP     : mkvmerge v8.7.0 ('All of the above') 64bit
_STATISTICS_WRITING_DATE_UT : 2016-01-06 10:41:30
_STATISTICS_TAGS            : BPS DURATION NUMBER_OF_FRAMES NUMBER_OF_BYTES
Audio #1
ID                          : 2
Format                      : AC-3
Format/Info                 : Audio Coding 3
Mode extension              : CM (complete main)
Format settings, Endianness : Big
Codec ID                    : A_AC3
Duration                    : 48mn 14s
Bit rate mode               : Constant
Bit rate                    : 192 Kbps
Channel(s)                  : 2 channels
Channel positions           : Front: L R
Sampling rate               : 48.0 KHz
Bit depth                   : 16 bits
Compression mode            : Lossy
Stream size                 : 66.2 MiB (1%)
Title                       : Dolby Digital 2.0 @ ORT @ Многоголосый закадровый
Language                    : Russian
Default                     : Yes
Forced                      : No
Audio #2
ID                          : 3
Format                      : AC-3
Format/Info                 : Audio Coding 3
Mode extension              : CM (complete main)
Format settings, Endianness : Big
Codec ID                    : A_AC3
Duration                    : 48mn 14s
Bit rate mode               : Constant
Bit rate                    : 192 Kbps
Channel(s)                  : 2 channels
Channel positions           : Front: L R
Sampling rate               : 48.0 KHz
Bit depth                   : 16 bits
Compression mode            : Lossy
Stream size                 : 66.2 MiB (1%)
Title                       : Dolby Digital 2.0 @ TV3 @ Дублированный
Language                    : Russian
Default                     : No
Forced                      : No
Audio #3
ID                          : 4
Format                      : AC-3
Format/Info                 : Audio Coding 3
Mode extension              : CM (complete main)
Format settings, Endianness : Big
Codec ID                    : A_AC3
Duration                    : 48mn 14s
Bit rate mode               : Constant
Bit rate                    : 192 Kbps
Channel(s)                  : 2 channels
Channel positions           : Front: L R
Sampling rate               : 48.0 KHz
Bit depth                   : 16 bits
Compression mode            : Lossy
Stream size                 : 66.2 MiB (1%)
Title                       : Dolby Digital 2.0 @ REN-TV @ Двухголосый закадровый
Language                    : Russian
Default                     : No
Forced                      : No
Audio #4
ID                          : 5
Format                      : DTS
Format/Info                 : Digital Theater Systems
Mode                        : 16
Format settings, Endianness : Big
Codec ID                    : A_DTS
Duration                    : 48mn 14s
Bit rate mode               : Constant
Bit rate                    : 1 509 Kbps
Channel(s)                  : 6 channels
Channel positions           : Front: L C R, Side: L R, LFE
Sampling rate               : 48.0 KHz
Bit depth                   : 16 bits
Compression mode            : Lossy
Stream size                 : 521 MiB (11%)
Title                       : DTS 5.1 @ Сергей Визгунов @ Одноголосый закадровый
Language                    : Russian
Default                     : No
Forced                      : No
Audio #5
ID                          : 6
Format                      : DTS
Format/Info                 : Digital Theater Systems
Mode                        : 16
Format settings, Endianness : Big
Codec ID                    : A_DTS
Duration                    : 48mn 14s
Bit rate mode               : Constant
Bit rate                    : 1 509 Kbps
Channel(s)                  : 6 channels
Channel positions           : Front: L C R, Side: L R, LFE
Sampling rate               : 48.0 KHz
Bit depth                   : 16 bits
Compression mode            : Lossy
Stream size                 : 521 MiB (11%)
Title                       : DTS 5.1 @ Юрий Живов @ Одноголосый закадровый
Language                    : Russian
Default                     : No
Forced                      : No
Audio #6
ID                          : 7
Format                      : AC-3
Format/Info                 : Audio Coding 3
Mode extension              : CM (complete main)
Format settings, Endianness : Big
Codec ID                    : A_AC3
Duration                    : 48mn 14s
Bit rate mode               : Constant
Bit rate                    : 192 Kbps
Channel(s)                  : 2 channels
Channel positions           : Front: L R
Sampling rate               : 48.0 KHz
Bit depth                   : 16 bits
Compression mode            : Lossy
Stream size                 : 66.2 MiB (1%)
Title                       : Dolby Digital 2.0 @ Tycoon-Studio @ Двухголосый закадровый
Language                    : Russian
Default                     : No
Forced                      : No
Audio #7
ID                          : 8
Format                      : AC-3
Format/Info                 : Audio Coding 3
Mode extension              : CM (complete main)
Format settings, Endianness : Big
Codec ID                    : A_AC3
Duration                    : 48mn 14s
Bit rate mode               : Constant
Bit rate                    : 192 Kbps
Channel(s)                  : 2 channels
Channel positions           : Front: L R
Sampling rate               : 48.0 KHz
Bit depth                   : 16 bits
Compression mode            : Lossy
Stream size                 : 66.2 MiB (1%)
Title                       : Dolby Digital 2.0 @ 1+1 @ Двухголосый закадровый
Language                    : Ukrainian
Default                     : No
Forced                      : No
Audio #8
ID                          : 9
Format                      : DTS
Format/Info                 : Digital Theater Systems
Mode                        : 16
Format settings, Endianness : Big
Codec ID                    : A_DTS
Duration                    : 48mn 14s
Bit rate mode               : Constant
Bit rate                    : 1 509 Kbps
Channel(s)                  : 6 channels
Channel positions           : Front: L C R, Side: L R, LFE
Sampling rate               : 48.0 KHz
Bit depth                   : 24 bits
Compression mode            : Lossy
Stream size                 : 521 MiB (11%)
Title                       : DTS 5.1 @ English
Language                    : English
Default                     : No
Forced                      : No
Text #1
ID                          : 10
Format                      : ASS
Codec ID                    : S_TEXT/ASS
Codec ID/Info               : Advanced Sub Station Alpha
Compression mode            : Lossless
Title                       : ASS @ Русские @ Форсированные
Language                    : Russian
Default                     : Yes
Forced                      : Yes
Text #2
ID                          : 11
Format                      : ASS
Codec ID                    : S_TEXT/ASS
Codec ID/Info               : Advanced Sub Station Alpha
Compression mode            : Lossless
Title                       : ASS @ Русские @ lostrator
Language                    : Russian
Default                     : No
Forced                      : No
Text #3
ID                          : 12
Format                      : UTF-8
Codec ID                    : S_TEXT/UTF8
Codec ID/Info               : UTF-8 Plain Text
Title                       : SRT @ Английские
Language                    : English
Default                     : No
Forced                      : No
Text #4
ID                          : 13
Format                      : UTF-8
Codec ID                    : S_TEXT/UTF8
Codec ID/Info               : UTF-8 Plain Text
Title                       : SRT @ Английские @ SDH
Language                    : English
Default                     : No
Forced                      : No
Menu
00:00:00.000                : en:00:00:00.000
00:02:17.262                : en:00:02:17.262
00:11:36.321                : en:00:11:36.321
00:14:44.801                : en:00:14:44.801
00:17:05.816                : en:00:17:05.816
00:20:18.551                : en:00:20:18.551
00:23:24.320                : en:00:23:24.320
00:30:35.709                : en:00:30:35.709
00:34:33.905                : en:00:34:33.905
00:38:44.822                : en:00:38:44.822
00:43:43.454                : en:00:43:43.454
00:47:45.237                : en:00:47:45.237
Download / Скачать

Хотите скачать бесплатно? Зарегистрируйтесь на сайте (ссылка на регистрацию). Pirat.ca - самый быстрый торрент трекер в рунете!

Как скачивать  ·   Что такое торрент  ·   Рейтинг и ограничения

TERMOS ®

Легенда

12068

Пост 08-Янв-2016 23:52 (спустя 1 год 4 месяца)

[Q] 

Ну, поехали..

_________________
[Профиль]  [ЛС] 

DimonBudy

Боцман

407

Пост 09-Янв-2016 00:52 (спустя 59 минут)

[Q] 

все ждут 11 сезон, первая серия выходит 23 января)
[Профиль]  [ЛС] 

TERMOS ®

Легенда

12068

Пост 09-Янв-2016 00:57 (спустя 5 минут)

[Q] 

DimonBudy, ждут 10-го. Про выход знаем. Ещё замечания?
Кстати: ТВ3 анонсировал 1-ю серию 10-го сезона на 26 января.

_________________
[Профиль]  [ЛС] 

Loxly

Гроза морей

Пост 09-Янв-2016 11:54 (спустя 10 часов)

[Q] 

Помнится, скачал всю коллекцию, но так и не осилил. :)
Раздающему респект!
[Профиль]  [ЛС] 

spidercola86

3254

Пост 09-Янв-2016 23:59 (спустя 12 часов)

[Q] 

С ностальгией вспоминаю время когда полностью весь сериал умещался на 40 гб )).
Не удивлюсь что скоро выйдет версия на 60 fps, а за ней и 3D. (как было с терминатором 1 и 2)
[Профиль]  [ЛС] 

TERMOS ®

Легенда

12068

Пост 10-Янв-2016 00:16 (спустя 16 минут)

[Q] 

spidercola86, Да, да. Я помню видеокарту брал аж 2 мб памяти. Думал лет на 10 хватит.

_________________
[Профиль]  [ЛС] 

spidercola86

3254

Пост 10-Янв-2016 00:41 (спустя 25 минут)

[Q] 

TERMOS, Наверно я немного тебя моложе?, мне родители первый комп купили с 2мб видео, 10Гб Диск, и 64 мб оперативы, и я год копил на 16мб видюху чтобы в КС с ботами погонять ))
[Профиль]  [ЛС] 

De Puta Madre

Морской Волк

Пост 10-Янв-2016 01:37 (спустя 55 минут)

[Q] 

TERMOS, подскажите, остальные сезоны в том же качестве планируете выкладывать?
[Профиль]  [ЛС] 

hevard

Гроза морей

2110

Пост 10-Янв-2016 01:44 (спустя 7 минут)

[Q] 

Вспомнила бабка, как в девках ходила...))))

_________________
-Я старый пират и не знаю слов лицензионного соглашения...
[Профиль]  [ЛС] 

TERMOS ®

Легенда

12068

Пост 10-Янв-2016 02:24 (спустя 39 минут)

[Q] 

De Puta Madre, если будут брать и поддерживать раздачи, то почему бы и нет?

_________________
[Профиль]  [ЛС] 

vinograss

Штурман

Пост 10-Янв-2016 17:47 (спустя 15 часов)

[Q] 

Спасибо!!! Большое спасибо.
[Профиль]  [ЛС] 

De Puta Madre

Морской Волк

Пост 10-Янв-2016 22:48 (спустя 5 часов)

[Q] 

728201De Puta Madre, если будут брать и поддерживать раздачи, то почему бы и нет?
Качаю и буду сидировать до последнего)))
[Профиль]  [ЛС] 

rouble

Лоцман

Пост 14-Янв-2016 23:00 (спустя 4 дня)

[Q] 

В гейропе новый сезон вышел уже 15 октября. неужели нет хотя бы любительских переводов?

_________________
[Профиль]  [ЛС] 

TERMOS ®

Легенда

12068

Пост 15-Янв-2016 21:38 (спустя 22 часа)

[Q] 

729191В гейропе новый сезон вышел уже 15 октября. неужели нет хотя бы любительских переводов?
В параллельной вселенной что ли? Тынц.

_________________
[Профиль]  [ЛС] 
Показать сообщения:    
Ответить на тему

Текущее время: Сегодня 00:23

Часовой пояс: GMT + 4



Вы не можете начинать темы
Вы не можете отвечать на сообщения
Вы не можете редактировать свои сообщения
Вы не можете удалять свои сообщения
Вы не можете голосовать в опросах
Вы не можете прикреплять файлы к сообщениям
Вы не можете скачивать файлы

▼ Вниз