ML
     
  Уважаемый Гость!
Вы можете поддержать проект и зарегистрироваться у наших партнеров - онлайн-стратегия MyLands. При регистрации в игре Вы получите код, который сможете активировать после регистрации на pirat.ca и получить 1000 дублонов.

Ваш код:
a261790f23fb05d13d060bdee9cb70d1451a6d3d
 
     

Больница Никербокер / The Knick (Сезон 1 / Полный / Серии: 10 из 10) (Стивен Содерберг / Steven Soderbergh) [2014 г., драма, ..., HDTVRip] MVO (NewStudio) + Original (Eng)

Ответить на тему
 
Автор
Сообщение

Пост 11-Авг-2014 12:12

[Q] 

kugesan

Больница Никербокер / The Knick «Modern medicine had to start somewhere»- Русское название: Больница Никербокер
Оригинальное название: The Knick
Страна: США
Год выпуска: 2013
Жанр: драма, ...-Озвучка: Студия |NewStudio|
Перевод: Многоголосый закадровый, профессиональный
Оригинальный аудиопоток: английский-Перевод: Григорий Сенин
Озвучка: Петр "Гланц" Иващенко, Константин Погодаев, Анна Тух
Постер: Андрей Шапал-Премьера (мир): 8 августа 2014, ...
Премьера (РФ): 9 августа 2014-Режиссер: Стивен Содерберг / Steven Soderbergh
В главных ролях: Джереми Бобб, Лори Финкел, Стив Гарфанти, Ив Хьюсон, Андре Холлэнд, Эрик Джонсон, Клайв Оуэн, Джульет Райлэнс, Джозеф Скарпино, Кэра Сеймур-Описание фильма:
Доктор Джон Такер работает хирургом в нью-йоркской больнице «Никербокер». Здесь применяют передовые методы и стараются помочь всем пациентам — но до изобретения лазерного скальпеля и компьютерной томографии еще очень далеко, а в карету скорой помощи запрягают лошадей.-Сезон: 1
Серии: 10 из 10 серий
Продолжительность: ~ 00:55:00 мин серия-Качество видео: HDTVRip
Формат: AVI
Видеокодек: XviD
Аудиокодек: Mp3
Видео: MPEG-4 Visual at 1489 Кбит/сек: 720 x 400 (1.800) at 23.976 fps, 0.22 Бит/Пиксели
Аудио Rus: MPEG Audio at 128 Кбит/сек, 2 канала, 48,0 КГц |NewStudio|
Аудио Eng: MPEG Audio at 128 Кбит/сек: 2 канала, 48,0 КГц |Original|
- -
  • Безумие и Последовательность (Method and Madness)
  • Мистер Парижские ботинки (Mr. Paris Shoes)
  • Деловая блошка (The Busy Flea)
  • Где же тут достоинство? (Where's the Dignity)
  • Они удерживают жару (They Capture the Heat)
  • Называй меня папой (Start Calling Me Dad)
  • Неси верёвку (Get the Rope)
  • Много работаешь по вечерам (Working Late a Lot)
  • Золотой лотус (The Golden Lotus)
  • Кратчфилд (Crutchfield)
-
Код:
Общее
Полное имя                               : E:\_Сериалы\Больница Ник\The Knick.s01.NewStudio\The.Knick.s01e01.HDTVRip.NewStudio.TV.avi
Формат                                   : AVI
Формат/Информация                        : Audio Video Interleave
Размер файла                             : 700 Мбайт
Продолжительность                        : 55 м.
Общий поток                              : 1759 Кбит/сек
Программа кодирования                    : VirtualDubMod 1.5.10.2 (build 2540/release)
Библиотека кодирования                   : VirtualDubMod build 2540/release
Видео
Идентификатор                            : 0
Формат                                   : MPEG-4 Visual
Профиль формата                          : Advanced [email protected]
Параметр BVOP формата                    : 2
Параметр QPel формата                    : Нет
Параметр GMC формата                     : Без точки перехода
Параметр матрицы формата                 : Default (MPEG)
Идентификатор кодека                     : XVID
Идентификатор кодека/Подсказка           : XviD
Продолжительность                        : 55 м.
Битрейт                                  : 1489 Кбит/сек
Ширина                                   : 720 пикселей
Высота                                   : 400 пикселей
Соотношение сторон                       : 16:9
Частота кадров                           : 23,976 кадра/сек
Цветовое пространство                    : YUV
Субдискретизация насыщенности            : 4:2:0
Битовая глубина                          : 8 бит
Тип развёртки                            : Прогрессивная
Метод сжатия                             : С потерями
Бит/(Пиксели*Кадры)                      : 0.216
Размер потока                            : 593 Мбайт (85%)
Библиотека кодирования                   : XviD 64
Аудио #1
Идентификатор                            : 1
Формат                                   : MPEG Audio
Версия формата                           : Version 1
Профиль формата                          : Layer 3
Режим                                    : Joint stereo
Расширение режима                        : MS Stereo
Идентификатор кодека                     : 55
Идентификатор кодека/Подсказка           : MP3
Продолжительность                        : 55 м.
Вид битрейта                             : Постоянный
Битрейт                                  : 128 Кбит/сек
Каналы                                   : 2 канала
Частота                                  : 48,0 КГц
Метод сжатия                             : С потерями
Размер потока                            : 50,9 Мбайт (7%)
Выравнивание                             : Соединение по промежуткам
Продолжительность промежутка             : 42  мс. (1,00 видеокадр)
Время предзагрузки промежутка            : 504  мс.
Аудио #2
Идентификатор                            : 2
Формат                                   : MPEG Audio
Версия формата                           : Version 1
Профиль формата                          : Layer 3
Режим                                    : Joint stereo
Идентификатор кодека                     : 55
Идентификатор кодека/Подсказка           : MP3
Продолжительность                        : 55 м.
Вид битрейта                             : Постоянный
Битрейт                                  : 128 Кбит/сек
Каналы                                   : 2 канала
Частота                                  : 48,0 КГц
Метод сжатия                             : С потерями
Размер потока                            : 50,9 Мбайт (7%)
Выравнивание                             : Соединение по промежуткам
Продолжительность промежутка             : 42  мс. (1,00 видеокадр)
Время предзагрузки промежутка            : 504  мс.
Библиотека кодирования                   : LAME3.99r
Настройки программы                      : -m j -V 4 -q 2 -lowpass 17 -b 128
-
-Скриншоты:
-
-
1. Открыть торрент
2. Снять галки с тех файлов торрента, которые мы не хотим закачивать. Оставляем только на нужных нам файлах (файле).
3. Нажать О.К.
В клиенте utorrent
Инструкция
1) Открыть торрент

2) Снять галки с тех файлов торрента, которые мы не хотим закачивать:
* либо вручную, снимая с каждого файла галку( скрин №1)
* либо, нажав кнопку "Снять метки (Select None)", сняв сразу со всех файлов(скрин №2)
№1

№2

Оставляем только на нужных нам файлах (файле).

3)Нажать О.К
-Добавлена десятая, заключительная, серия первого сезона
Download / Скачать

Хотите скачать бесплатно? Зарегистрируйтесь на сайте (ссылка на регистрацию). Pirat.ca - самый быстрый торрент трекер в рунете!

Как скачивать  ·   Что такое торрент  ·   Рейтинг и ограничения



Последний раз редактировалось: kugesan (2014-10-20 12:16), всего редактировалось 9 раз(а)

kugesan ®

56682

Пост 20-Окт-2014 12:17 (спустя 2 месяца 9 дней)

[Q] 

Добавлена десятая, заключительная, серия первого сезона

_________________

В мире две бесконечности: вселенная и человеческая глупость - Альберт Эйнштен
«Можно вытащить человека из грязи, но нельзя вытащить грязь из человека»!
[Профиль]  [ЛС] 

Пост 28-Янв-2015 00:23 (спустя 3 месяца 7 дней)

Топик был перенесен из форума Сериалы в эфире в форум Зарубежные сериалы
Андря
 
Показать сообщения:    
Ответить на тему

Текущее время: Сегодня 20:02

Часовой пояс: GMT + 4



Вы не можете начинать темы
Вы не можете отвечать на сообщения
Вы не можете редактировать свои сообщения
Вы не можете удалять свои сообщения
Вы не можете голосовать в опросах
Вы не можете прикреплять файлы к сообщениям
Вы не можете скачивать файлы

▼ Вниз