ML
     
  Уважаемый Гость!
Вы можете поддержать проект и зарегистрироваться у наших партнеров - онлайн-стратегия MyLands. При регистрации в игре Вы получите код, который сможете активировать после регистрации на pirat.ca и получить 1000 дублонов.

Ваш код:
5f4e94775bc0501caff7b254e79328d304c817d9
 
     

Больница Никербокер / The Knick (Сезон 1 / Полный / Серии: 10 из 10) (Стивен Содерберг / Steven Soderbergh) [2014 г., драма, ..., HDTVRip] MVO (AlexFilm) + Original (Eng)

Ответить на тему
 
Автор
Сообщение

Пост 14-Авг-2014 20:46

[Q] 

kugesan

Больница Никербокер / The Knick
«Modern medicine had to start somewhere»
- Русское название: Больница Никербокер
Оригинальное название: The Knick
Страна: США
Год выпуска: 2013
Жанр: драма, ...-Релиз:
Перевод: Многоголосый закадровый, профессиональный
Оригинальный аудиопоток: английский-Автор перевода: Константин Кривоногов
Роли озвучивали: Евгения Тихонова, Михаил Суслов, Владимир Курдов, Сергей Пономарёв, Роман Сопко (1)
Монтаж и сведение звука: Сергей Мартынов-Премьера (мир): 8 августа 2014, ...
Премьера (РФ): 9 августа 2014-Режиссер: Стивен Содерберг / Steven Soderbergh
В главных ролях: Джереми Бобб, Лори Финкел, Стив Гарфанти, Ив Хьюсон, Андре Холлэнд, Эрик Джонсон, Клайв Оуэн, Джульет Райлэнс, Джозеф Скарпино, Кэра Сеймур-Описание фильма:
Доктор Джон Такер работает хирургом в нью-йоркской больнице «Никербокер». Здесь применяют передовые методы и стараются помочь всем пациентам — но до изобретения лазерного скальпеля и компьютерной томографии еще очень далеко, а в карету скорой помощи запрягают лошадей.-Сезон: 1
Серии: 10 из 10 серий
Продолжительность: ~ 00:55:00 мин серия-Качество видео: HDTVRip
Формат: AVI
Видеокодек: XviD
Аудиокодек: Mp3
Видео: MPEG-4 Visual at 1417 Кбит/сек: 720 x 400 (1.800) at 23.976 fps, 0.21 Бит/Пиксели
Аудио Rus: MPEG Audio at 128 Кбит/сек, 2 канала, 48,0 КГц |AlexFilm|
Аудио Eng: MPEG Audio at 128 Кбит/сек: 2 канала, 48,0 КГц |Original|
- -
  • Последовательное безумие (Method and Madness)
  • Мистер Парижские ботинки (Mr. Paris Shoes)
  • Назойливая блоха (The Busy Flea)
  • Где же тут достоинство? (Where's the Dignity)
  • Они удерживают жару (They Capture the Heat)
  • Начните называть меня папой (Start Calling Me Dad)
  • Неси верёвку (Get the Rope)
  • Много работаешь по вечерам (Working Late a Lot)
  • Золотой лотус (The Golden Lotus)
  • Кратчфилд (Crutchfield)
-
Код:
Общее
Полное имя                               : E:\_Сериалы\Больница Ник\The Knick - Season 1 (AlexFilm) HDTVRip\The.Knick.s01e01.HDTVRip.Rus.Eng.AlexFilm.avi
Формат                                   : AVI
Формат/Информация                        : Audio Video Interleave
Размер файла                             : 671 Мбайт
Продолжительность                        : 55 м.
Общий поток                              : 1687 Кбит/сек
Название фильма                          : The Knick 1x01 Method and Madness @ AlexFilm
Программа кодирования                    : VirtualDubMod 1.5.10.2 (build 2542/release)
Видео
Идентификатор                            : 0
Формат                                   : MPEG-4 Visual
Профиль формата                          : Advanced [email protected]
Параметр BVOP формата                    : 1
Параметр QPel формата                    : Нет
Параметр GMC формата                     : Без точки перехода
Параметр матрицы формата                 : Default (MPEG)
Идентификатор кодека                     : XVID
Идентификатор кодека/Подсказка           : XviD
Продолжительность                        : 55 м.
Битрейт                                  : 1417 Кбит/сек
Ширина                                   : 720 пикселей
Высота                                   : 400 пикселей
Соотношение сторон                       : 16:9
Частота кадров                           : 23,976 кадра/сек
Цветовое пространство                    : YUV
Субдискретизация насыщенности            : 4:2:0
Битовая глубина                          : 8 бит
Тип развёртки                            : Прогрессивная
Метод сжатия                             : С потерями
Бит/(Пиксели*Кадры)                      : 0.205
Размер потока                            : 563 Мбайт (84%)
Библиотека кодирования                   : XviD 1.2.1 (UTC 2008-12-04)
Аудио #1
Идентификатор                            : 1
Формат                                   : MPEG Audio
Версия формата                           : Version 1
Профиль формата                          : Layer 3
Режим                                    : Joint stereo
Расширение режима                        : MS Stereo
Идентификатор кодека                     : 55
Идентификатор кодека/Подсказка           : MP3
Продолжительность                        : 55 м.
Вид битрейта                             : Постоянный
Битрейт                                  : 128 Кбит/сек
Каналы                                   : 2 канала
Частота                                  : 48,0 КГц
Метод сжатия                             : С потерями
Размер потока                            : 50,9 Мбайт (8%)
Выравнивание                             : Соединение по промежуткам
Продолжительность промежутка             : 42  мс. (1,00 видеокадр)
Время предзагрузки промежутка            : 504  мс.
Заголовок                                : Russian (AlexFilm)
Аудио #2
Идентификатор                            : 2
Формат                                   : MPEG Audio
Версия формата                           : Version 1
Профиль формата                          : Layer 3
Режим                                    : Joint stereo
Идентификатор кодека                     : 55
Идентификатор кодека/Подсказка           : MP3
Продолжительность                        : 55 м.
Вид битрейта                             : Постоянный
Битрейт                                  : 128 Кбит/сек
Каналы                                   : 2 канала
Частота                                  : 48,0 КГц
Метод сжатия                             : С потерями
Размер потока                            : 50,9 Мбайт (8%)
Выравнивание                             : Соединение по промежуткам
Продолжительность промежутка             : 42  мс. (1,00 видеокадр)
Время предзагрузки промежутка            : 504  мс.
Заголовок                                : English
-
-Скриншоты:
-
-
1. Открыть торрент
2. Снять галки с тех файлов торрента, которые мы не хотим закачивать. Оставляем только на нужных нам файлах (файле).
3. Нажать О.К.
В клиенте utorrent
Инструкция
1) Открыть торрент

2) Снять галки с тех файлов торрента, которые мы не хотим закачивать:
* либо вручную, снимая с каждого файла галку( скрин №1)
* либо, нажав кнопку "Снять метки (Select None)", сняв сразу со всех файлов(скрин №2)
№1

№2

Оставляем только на нужных нам файлах (файле).

3)Нажать О.К
-Добавлена десятая, заключительная, серия первого сезона
Download / Скачать

Хотите скачать бесплатно? Зарегистрируйтесь на сайте (ссылка на регистрацию). Pirat.ca - самый быстрый торрент трекер в рунете!

Как скачивать  ·   Что такое торрент  ·   Рейтинг и ограничения



Последний раз редактировалось: kugesan (2014-10-20 12:14), всего редактировалось 11 раз(а)

kugesan ®

56607

Пост 19-Авг-2014 19:42 (спустя 4 дня)

[Q] 

Первая серия заменена на исправленную

_________________

В мире две бесконечности: вселенная и человеческая глупость - Альберт Эйнштен
«Можно вытащить человека из грязи, но нельзя вытащить грязь из человека»!
[Профиль]  [ЛС] 

vizual

Лоцман

Пост 25-Авг-2014 22:18 (спустя 6 дней)

[Q] 

отличный сериал, спасибо
[Профиль]  [ЛС] 

kugesan ®

56607

Пост 16-Сен-2014 17:22 (спустя 21 день)

[Q] 


Заменена русская дорожка в 3 серии.
В 3 и 4 сериях заменено видео.

_________________

В мире две бесконечности: вселенная и человеческая глупость - Альберт Эйнштен
«Можно вытащить человека из грязи, но нельзя вытащить грязь из человека»!
[Профиль]  [ЛС] 

Vitros666

Шкипер

Пост 22-Сен-2014 14:17 (спустя 5 дней)

[Q] 

Что то необычное вроде - буду раздавать ! rum

_________________
[Профиль]  [ЛС] 

erda

Морской Волк

Пост 24-Сен-2014 15:56 (спустя 2 дня 1 час)

[Q] 

классный сериал. наконец-то что-то новое придумали.
Лови бочку
[Профиль]  [ЛС] 

kugesan ®

56607

Пост 24-Сен-2014 18:50 (спустя 2 часа 53 минуты)

[Q] 

Vitros666, Спасибо за помощь!!!
erda, Приятного просмотра!

_________________

В мире две бесконечности: вселенная и человеческая глупость - Альберт Эйнштен
«Можно вытащить человека из грязи, но нельзя вытащить грязь из человека»!
[Профиль]  [ЛС] 

kugesan ®

56607

Пост 19-Окт-2014 23:18 (спустя 25 дней)

[Q] 

Добавлена десятая, заключительная, серия первого сезона

_________________

В мире две бесконечности: вселенная и человеческая глупость - Альберт Эйнштен
«Можно вытащить человека из грязи, но нельзя вытащить грязь из человека»!
[Профиль]  [ЛС] 

ulkserg1

Лоцман

Пост 22-Окт-2014 15:46 (спустя 2 дня 16 часов)

[Q] 

Спасибо!!!!!!!!
[Профиль]  [ЛС] 

Пост 22-Окт-2014 16:55 (спустя 1 час 9 минут)

Топик был перенесен из форума Сериалы в эфире в форум Зарубежные сериалы
TERMOS
 

янка-сан

Гроза морей

Пост 18-Дек-2015 20:41 (спустя 1 год 1 месяц)

[Q] 

очень достойный Лови бочку
[Профиль]  [ЛС] 
Показать сообщения:    
Ответить на тему

Текущее время: Сегодня 15:36

Часовой пояс: GMT + 4



Вы не можете начинать темы
Вы не можете отвечать на сообщения
Вы не можете редактировать свои сообщения
Вы не можете удалять свои сообщения
Вы не можете голосовать в опросах
Вы не можете прикреплять файлы к сообщениям
Вы не можете скачивать файлы

▼ Вниз