ML
     
  Уважаемый Гость!
Вы можете поддержать проект и зарегистрироваться у наших партнеров - онлайн-стратегия MyLands. При регистрации в игре Вы получите код, который сможете активировать после регистрации на pirat.ca и получить 1000 дублонов.

Ваш код:
0ea1bf889af42fca5f67d0a391efb3400850ad7c
 
     

Легенды / Legends (Сезон 1 / Полный / Серии: 10 из 10) (Дэвид Семел / David Semel, ...) [2014г., драма, ... WEB-DLRip] MVO (AlexFilm) + Original (Eng)

Ответить на тему
 
Автор
Сообщение

Пост 16-Авг-2014 13:03

[Q] 

kugesan

Легенды / Legends- Русское название: Легенды
Оригинальное название: Legends
Страна: США
Год выпуска: 2014
Жанр: драма, ...-Релиз:
Перевод: Многоголосый закадровый, профессиональный
Оригинальный аудиопоток: английский-Автор перевода: Константин Кривоногов
Роли озвучивали: Евгения Тихонова, Михаил Суслов, Владимир Курдов, Сергей Пономарёв, Роман Сопко (1)
Монтаж и сведение звука: Сергей Мартынов-Премьера (мир): 13 августа 2014, ...-Режиссер: Дэвид Семел / David Semel, Брэд Тернер / Brad Turner, Джон Беринг / John Behring
В главных ролях: Шон Бин, Эли Лартер, Тина Мажорино, Стив Харрис, Эмбер Валлетта, Мэйсон Кук, Jason Yorker, Моррис Честнат, Роксана Бруссо, Дэвид Мюнье, ...-Описание фильма:
Эксперт ЦРУ Мартин Одам (Шон Бин) возвращается домой после долгой работы под прикрытием в рядах действующей в США террористической организации. Он пытается восстановить отношения с родными и коллегами, тяжело переживая события своего последнего задания. Мартин еще не знает, что террористы планируют новую атаку, и ему придется продолжить свое расследование. Ситуацию осложняет неожиданно полученная Одамом информация о том, что вообще вся его жизнь — ложь, очередная созданная спецслужбами «легенда»…-Сезон: 1
Серии: 10 из 10 серий
Продолжительность: ~ 00:41:00 мин серия-Качество видео: WEB-DLRip
Формат: AVI
Видеокодек: XviD
Аудиокодек: Mp3
Видео: MPEG-4 Visual at 1395 Кбит/сек: 720 x 400 (1.800) at 23.976 fps, 0.20 Бит/Пиксели
Аудио Rus: MPEG Audio at 128 Кбит/сек, 2 канала, 48,0 КГц |AlexFilm|
Аудио Eng: MPEG Audio at 128 Кбит/сек: 2 канала, 48,0 КГц |Original|
-Легенды / Legends на Pirat.ca
-
  • Пилотная (Pilot)
  • Химия (Chemistry)
  • Герои войны (Lords of War)
  • Предательство (Rogue)
  • Самоволка (Gauntlet)
  • Сквозь строй (Quicksand)
  • Зыбучие пески (Quicksand)
  • Бунтарь (Iconoclast)
  • Безумие зеркал (Wilderness of Mirrors)
  • Идентификация (Identity)
-
Код:
Общее
Полное имя                               : E:\_Сериалы\_Сериалы\Легенды\Legends - Season 1 (AlexFilm) WEB-DLRip\Legends.s01e01.WEB-DLRip.Rus.Eng.AlexFilm.avi
Формат                                   : AVI
Формат/Информация                        : Audio Video Interleave
Размер файла                             : 500 Мбайт
Продолжительность                        : 42 м.
Общий поток                              : 1665 Кбит/сек
Название фильма                          : Legends 1x01 Pilot @ AlexFilm
Программа кодирования                    : VirtualDubMod 1.5.10.2 (build 2542/release)
Видео
Идентификатор                            : 0
Формат                                   : MPEG-4 Visual
Профиль формата                          : Advanced [email protected]
Параметр BVOP формата                    : 1
Параметр QPel формата                    : Нет
Параметр GMC формата                     : Без точки перехода
Параметр матрицы формата                 : Default (MPEG)
Идентификатор кодека                     : XVID
Идентификатор кодека/Подсказка           : XviD
Продолжительность                        : 42 м.
Битрейт                                  : 1395 Кбит/сек
Ширина                                   : 720 пикселей
Высота                                   : 400 пикселей
Соотношение сторон                       : 16:9
Частота кадров                           : 23,976 кадра/сек
Цветовое пространство                    : YUV
Субдискретизация насыщенности            : 4:2:0
Битовая глубина                          : 8 бит
Тип развёртки                            : Прогрессивная
Метод сжатия                             : С потерями
Бит/(Пиксели*Кадры)                      : 0.202
Размер потока                            : 419 Мбайт (84%)
Библиотека кодирования                   : XviD 1.2.1 (UTC 2008-12-04)
Аудио #1
Идентификатор                            : 1
Формат                                   : MPEG Audio
Версия формата                           : Version 1
Профиль формата                          : Layer 3
Режим                                    : Joint stereo
Расширение режима                        : MS Stereo
Идентификатор кодека                     : 55
Идентификатор кодека/Подсказка           : MP3
Продолжительность                        : 42 м.
Вид битрейта                             : Постоянный
Битрейт                                  : 128 Кбит/сек
Каналы                                   : 2 канала
Частота                                  : 48,0 КГц
Метод сжатия                             : С потерями
Размер потока                            : 38,5 Мбайт (8%)
Выравнивание                             : Соединение по промежуткам
Продолжительность промежутка             : 42  мс. (1,00 видеокадр)
Время предзагрузки промежутка            : 504  мс.
Заголовок                                : Russian (AlexFilm)
Аудио #2
Идентификатор                            : 2
Формат                                   : MPEG Audio
Версия формата                           : Version 1
Профиль формата                          : Layer 3
Режим                                    : Joint stereo
Идентификатор кодека                     : 55
Идентификатор кодека/Подсказка           : MP3
Продолжительность                        : 42 м.
Вид битрейта                             : Постоянный
Битрейт                                  : 128 Кбит/сек
Каналы                                   : 2 канала
Частота                                  : 48,0 КГц
Метод сжатия                             : С потерями
Размер потока                            : 38,5 Мбайт (8%)
Выравнивание                             : Соединение по промежуткам
Продолжительность промежутка             : 42  мс. (1,00 видеокадр)
Время предзагрузки промежутка            : 504  мс.
Заголовок                                : English
-
-Скриншоты:
-
-
1. Открыть торрент
2. Снять галки с тех файлов торрента, которые мы не хотим закачивать. Оставляем только на нужных нам файлах (файле).
3. Нажать О.К.
В клиенте utorrent
Инструкция
1) Открыть торрент

2) Снять галки с тех файлов торрента, которые мы не хотим закачивать:
* либо вручную, снимая с каждого файла галку( скрин №1)
* либо, нажав кнопку "Снять метки (Select None)", сняв сразу со всех файлов(скрин №2)
№1

№2

Оставляем только на нужных нам файлах (файле).

3)Нажать О.К
-Добавлена десятая, заключительная, серия первого сезона
Download / Скачать

Хотите скачать бесплатно? Зарегистрируйтесь на сайте (ссылка на регистрацию). Pirat.ca - самый быстрый торрент трекер в рунете!

Как скачивать  ·   Что такое торрент  ·   Рейтинг и ограничения



Последний раз редактировалось: kugesan (2014-10-12 13:27), всего редактировалось 10 раз(а)

viktor41

Шкипер

Пост 12-Окт-2014 22:27 (спустя 1 месяц 27 дней)

[Q] 

kugesan, Большое СПАСИБО ! Всем качать!!! Автору респект!!!
[Профиль]  [ЛС] 

Пост 28-Янв-2015 00:23 (спустя 3 месяца 15 дней)

Топик был перенесен из форума Сериалы в эфире в форум Зарубежные сериалы
Андря
 

BraionServ1

Гроза морей

Пост 30-Окт-2015 01:10 (спустя 1 год)

[Q] 

Странно второй сезон уже вышел даже в озвучке от Байбаков, а на пиратке об этом не знают. Было б время, а главное желание и быстрый интернет выгражал бы на пиратку из других трекеров
[Профиль]  [ЛС] 
Показать сообщения:    
Ответить на тему

Текущее время: Сегодня 00:39

Часовой пояс: GMT + 4



Вы не можете начинать темы
Вы не можете отвечать на сообщения
Вы не можете редактировать свои сообщения
Вы не можете удалять свои сообщения
Вы не можете голосовать в опросах
Вы не можете прикреплять файлы к сообщениям
Вы не можете скачивать файлы

▼ Вниз