ML
     
  Уважаемый Гость!
Вы можете поддержать проект и зарегистрироваться у наших партнеров - онлайн-стратегия MyLands. При регистрации в игре Вы получите код, который сможете активировать после регистрации на pirat.ca и получить 1000 дублонов.

Ваш код:
47bfc18b89c74e4ae0d974e9b6943639e2bff08e
 
     

Гудини / Houdini / Сезон: 1 [Полный] Серии: 1-3 из 3 [мини-сериал] (Ули Эдель / Uli Edel) [2014 г., драма, биография, WEB-DLRip] MVO (LostFilm) + Sub (Eng)

Ответить на тему
 
Автор
Сообщение

Пост 05-Сен-2014 10:10

[Q] 

AnastasWolf

Гудини / Houdini- Год выпуска: 2014 г.
Производство: Канада
Жанр: драма, биография
Продолжительность: 3x ~ 00:42:00
Мировая премьера: 1 сентября 2014
Перевод: Профессиональный (многоголосый, закадровый) [LostFilm]
Режиссёр: Ули Эдель / Uli Edel-В ролях: Эдриен Броуди (Гарри Гудини), Кристен Коннолли (Бесс Гудини), Ивэн Джоунс (Джим Коллинз), Том Бенедикт Найт (Дэш Гудини), Эстер Оноди (Сесилия Вайс), Иван Камарас (Григорий Распутин), Меган Доддс (Мина Крэндон).-Описание: «Гудини» — драматический мини-сериал о жизни гуру мистификации и уличных трюков.
Байопик расскажет об одном из самых харизматичных и отчаянных шоуменов XX века, который каждый день рисковал репутацией и здоровьем — на сцене и в повседневной жизни.
Проект стал очень личным для исполнителя главной роли, Эдриена Броуди, который в детстве страстно мечтал о продолжении дела великого иллюзиониста. По словам Броуди, этот непревзойденный артист-престидижитатор стал его кумиром и примером для подражания.
- *8.0 *7.88Качество видео: WEB-DLRip
Контейнер: AVI
Видео кодек: XviD
Аудио кодек: MP3
Видео: 720x400, ~ 1400 kbps avg, 23.976 fps, 0.200 bit/pixel
Аудио: 192 kbps, 2 ch, 48.0 kHz
Cубтитры: английские, hardsub (неотключаемые)
Общее
Полное имя : Houdini.S01E01.rus.LostFilm.TV.avi
Формат : AVI
Формат/Информация : Audio Video Interleave
Размер файла : 458 Мбайт
Продолжительность : 40 м.
Режим общего битрейта : Переменный
Общий поток : 1580 Кбит/сек
Программа кодирования : Nandub v1.0rc2
Библиотека кодирования : Nandub build 1853/release
Видео
Идентификатор : 0
Формат : MPEG-4 Visual
Профиль формата : Advanced [email protected]
Параметр BVOP формата : Нет
Параметр QPel формата : Нет
Параметр GMC формата : Без точки перехода
Параметр матрицы формата : Default (H.263)
Идентификатор кодека : XVID
Идентификатор кодека/Подсказка : XviD
Продолжительность : 40 м.
Битрейт : 1379 Кбит/сек
Ширина : 720 пикселей
Высота : 400 пикселей
Соотношение сторон : 16:9
Частота кадров : 23,976 кадра/сек
Цветовое пространство : YUV
Субдискретизация насыщенности : 4:2:0
Битовая глубина : 8 бит
Тип развёртки : Прогрессивная
Метод сжатия : С потерями
Бит/(Пиксели*Кадры) : 0.200
Размер потока : 400 Мбайт (87%)
Библиотека кодирования : XviD 1.2.1 (UTC 2008-12-04)
Аудио
Идентификатор : 1
Формат : MPEG Audio
Версия формата : Version 1
Профиль формата : Layer 3
Режим : Joint stereo
Расширение режима : MS Stereo
Идентификатор кодека : 55
Идентификатор кодека/Подсказка : MP3
Продолжительность : 40 м.
Вид битрейта : Переменный
Битрейт : 192 Кбит/сек
Каналы : 2 канала
Частота : 48,0 КГц
Метод сжатия : С потерями
Размер потока : 54,5 Мбайт (12%)
Выравнивание : Соединение по промежуткам
Продолжительность промежутка : 24 мс. (0,58 видеокадр)
Время предзагрузки промежутка : 502 мс.
Библиотека кодирования : LAME3.97b
Настройки программы : -m j -V 4 -q 3 -lowpass 18.6 --abr 192
Download / Скачать

Хотите скачать бесплатно? Зарегистрируйтесь на сайте (ссылка на регистрацию). Pirat.ca - самый быстрый торрент трекер в рунете!

Как скачивать  ·   Что такое торрент  ·   Рейтинг и ограничения



Последний раз редактировалось: AnastasWolf (2014-09-20 14:24), всего редактировалось 4 раз(а)

AnastasWolf ®

3476

Пост 12-Сен-2014 15:45 (спустя 7 дней)

[Q] 


_________________
[Профиль]  [ЛС] 

AnastasWolf ®

3476

Пост 13-Сен-2014 13:29 (спустя 21 час)

[Q] 

Сериал в этой озвучке не закончен, продолжение следует...Желающие посмотреть полностью ---> Гудини / Houdini / Сезон: 1 [Полный] Серии: 2 из 2 (Ули Эдель / Uli Edel) [2014 г., биография, драма, WEB-DLRip, 1080p] MVO [AlexFilm] + Original (Eng) + Sub (Rus)

_________________
[Профиль]  [ЛС] 

dzaybatsu

Лоцман

Пост 15-Сен-2014 01:30 (спустя 1 день 12 часов)

[Q] 

зарекался же не смотреть пока все серии не выйдут ei
[Профиль]  [ЛС] 

AnastasWolf ®

3476

Пост 16-Сен-2014 01:04 (спустя 23 часа)

[Q] 

dzaybatsu, Озвучку LostFilm придётся подождать.

_________________
[Профиль]  [ЛС] 

MaXoR

Флибустьер

1475

Пост 21-Сен-2014 09:00 (спустя 5 дней)

[Q] 

580808dzaybatsu, Озвучку LostFilm придётся подождать.
Спасибо за раздачу! Сейчас идет раздача полная, оконченная?

_________________
Живы будем - не помрем!
[Профиль]  [ЛС] 

AnastasWolf ®

3476

Пост 21-Сен-2014 22:37 (спустя 13 часов)

[Q] 

MaXoR, да.

_________________
[Профиль]  [ЛС] 

phoboeus

Штурман

Пост 06-Окт-2014 14:15 (спустя 14 дней)

[Q] 

коротковато, конечно зато без воды.
[Профиль]  [ЛС] 

Vintorezov REG 39

Легенда

176

Пост 06-Окт-2014 20:52 (спустя 6 часов)

[Q] 

Фильм на один раз На любителя
[Профиль]  [ЛС] 

AnastasWolf ®

3476

Пост 07-Окт-2014 12:28 (спустя 15 часов)

[Q] 

Vintorezov REG 39, а я сохранила в коллекцию.

_________________
[Профиль]  [ЛС] 

Vintorezov REG 39

Легенда

176

Пост 17-Окт-2014 16:58 (спустя 10 дней)

[Q] 

AnastasWolf, а мне он так себе на один раз
[Профиль]  [ЛС] 

lexaspirit

Пост 23-Окт-2014 22:33 (спустя 6 дней)

[Q] 

Сериал клёвый, только жаль что такой короткий. Качайте, не пожалеете

_________________
-------------------- ----------------------
[Профиль]  [ЛС] 

Adyga

Матрос

Пост 30-Янв-2015 23:23 (спустя 3 месяца 7 дней)

[Q] 

Дайте скорости.
[Профиль]  [ЛС] 

Bozo

Флибустьер

Пост 03-Апр-2015 21:35 (спустя 2 месяца 3 дня)

[Q] 

как-то не впечатлило с самого начала, на любителя
[Профиль]  [ЛС] 

helsingard

Штурман

Пост 12-Апр-2015 14:33 (спустя 8 дней)

[Q] 

Я впечатлен, супер Супер! Всем качать!!!
[Профиль]  [ЛС] 
Показать сообщения:    
Ответить на тему

Текущее время: Сегодня 07:01

Часовой пояс: GMT + 4



Вы не можете начинать темы
Вы не можете отвечать на сообщения
Вы не можете редактировать свои сообщения
Вы не можете удалять свои сообщения
Вы не можете голосовать в опросах
Вы не можете прикреплять файлы к сообщениям
Вы не можете скачивать файлы

▼ Вниз