ML
     
  Уважаемый Гость!
Вы можете поддержать проект и зарегистрироваться у наших партнеров - онлайн-стратегия MyLands. При регистрации в игре Вы получите код, который сможете активировать после регистрации на pirat.ca и получить 1000 дублонов.

Ваш код:
8b752b428cf60a012c159dcae592cd1392170115
 
     

Гудини / Houdini (Сезон 1 / Полный / Серии: 2 из 2) (Ули Эдел / Uli Edel) [2014 г., драма, биография, ..., WEB-DLRip] MVO (BaibaKo) + Original (Eng)

Ответить на тему
 
Автор
Сообщение

Пост 05-Сен-2014 11:17

[Q] 

kugesan

Гудини / Houdini - Режиссер / Телекомпания:
Русское название: Гудини
Оригинальное название: Houdini
Страна: Канада
Год выпуска: 2014
Жанр: драма, биография, ...-Премьера (мир): 1 сентября 2014-Релиз:
Перевод: Профессиональный (многоголосый, закадровый)
Оригинальный аудиопоток: английский-Над релизом работали:
Перевод: Мария Матвейчук и Анна Макаренко (бюро переводов "SM-Group")
Озвучка: Сергей Корчак, Дмитрий Глебов, Лира Грим и Татьяна Оболевич
Монтаж: Виталий Мартыняк
Обложка: tvblog-Режиссер: Ули Эдел / Uli Edel
В главных ролях: Эдриен Броуди (Гарри Гудини), Кристен Коннолли (Бесс Гудини), Ивэн Джоунс (Джим Коллинз), Том Бенедикт Найт (Дэш Гудини), Эстер Оноди (Сесилия Вайс), Иван Камарас (Григорий Распутин), Меган Доддс (Мина Крэндон), ...-Описание фильма:
«Гудини» — драматический мини-сериал о жизни гуру мистификации и уличных трюков. Байопик Гарри Гудини расскажет об одном из самых харизматичных и отчаянных шоуменов XX века, который каждый день рисковал репутацией и здоровьем — на сцене и в повседневной жизни. Проект стал очень личным для исполнителя титульной роли, Эдриена Броуди, который в детстве страстно мечтал о продолжении дела великого иллюзиониста. По словам Броуди, этот непревзойденный артист-престидижитатор стал его кумиром и примером для подражания.
В основу сюжета легла насыщенная событиями биография Гарри Гудини (Эдриен Броуди) — от бедности до всемирной славы, от цирковых подмостков до лучших концертных залов Европы и Америки. Зрители канала History смогут посетить поражающее воображение закулисье магических шоу и узнать тайны таких опасных трюков, как побег из китайской водной камеры пыток. Создатели проекта не обошли вниманием и другие сферы деятельности великого иллюзиониста — его участие в международном шпионаже и борьбу с псевдоспиритуалистами. При этом самый ловкий и везучий фокусник в истории представлен в новом шоу как обычный человек со своими слабостями и страхами. Гарри Гудини неустанно преодолевал себя и в итоге стал настоящей мировой легендой.-Сезон: 1
Серии: 2 из 2 серий
Продолжительность: ~ 00:40:00 мин серия-Качество видео: WEB-DLRip
Формат: AVI
Видеокодек: XviD
Аудиокодек: Mp3
Видео: MPEG-4 Visual at 1504 Кбит/сек: 720 x 400 (1.800) at 23.976 fps: 0.22 Бит/Пиксели
Аудио Rus: MPEG Audio at 192 Кбит/сек, 2 канала, 48,0 КГц |BaibaKo|
Аудио Eng: MPEG Audio at 192 Кбит/сек, 2 канала, 48,0 КГц |Original|
Cубтитры: отсутствуют

- -
  • Эпизод 1
  • Эпизод 2
-
Код:
Общее
Полное имя                               : E:\_Сериалы\_Сериалы\Гудини\Houdini.S01.BaibaKo\Houdini.s01e01.WEB-DLRip.XviD.Rus-Eng.BaibaKo.tv.avi
Формат                                   : AVI
Формат/Информация                        : Audio Video Interleave
Размер файла                             : 1,12 Гбайт
Продолжительность                        : 1 ч. 24 м.
Общий поток                              : 1902 Кбит/сек
Программа кодирования                    : VirtualDubMod 1.5.10.2 (build 2540/release)
Библиотека кодирования                   : VirtualDubMod build 2540/release
Видео
Идентификатор                            : 0
Формат                                   : MPEG-4 Visual
Профиль формата                          : Advanced [email protected]
Параметр BVOP формата                    : 2
Параметр QPel формата                    : Нет
Параметр GMC формата                     : Без точки перехода
Параметр матрицы формата                 : Default (H.263)
Идентификатор кодека                     : XVID
Идентификатор кодека/Подсказка           : XviD
Продолжительность                        : 1 ч. 24 м.
Битрейт                                  : 1504 Кбит/сек
Ширина                                   : 720 пикселей
Высота                                   : 400 пикселей
Соотношение сторон                       : 16:9
Частота кадров                           : 23,976 кадра/сек
Цветовое пространство                    : YUV
Субдискретизация насыщенности            : 4:2:0
Битовая глубина                          : 8 бит
Тип развёртки                            : Прогрессивная
Метод сжатия                             : С потерями
Бит/(Пиксели*Кадры)                      : 0.218
Размер потока                            : 905 Мбайт (79%)
Библиотека кодирования                   : XviD 1.2.1 (UTC 2008-12-04)
Аудио #1
Идентификатор                            : 1
Формат                                   : MPEG Audio
Версия формата                           : Version 1
Профиль формата                          : Layer 3
Режим                                    : Joint stereo
Расширение режима                        : MS Stereo
Идентификатор кодека                     : 55
Идентификатор кодека/Подсказка           : MP3
Продолжительность                        : 1 ч. 24 м.
Вид битрейта                             : Постоянный
Битрейт                                  : 192 Кбит/сек
Каналы                                   : 2 канала
Частота                                  : 48,0 КГц
Метод сжатия                             : С потерями
Размер потока                            : 116 Мбайт (10%)
Выравнивание                             : Соединение по промежуткам
Продолжительность промежутка             : 42  мс. (1,00 видеокадр)
Время предзагрузки промежутка            : 504  мс.
Аудио #2
Идентификатор                            : 2
Формат                                   : MPEG Audio
Версия формата                           : Version 1
Профиль формата                          : Layer 3
Режим                                    : Joint stereo
Расширение режима                        : MS Stereo
Идентификатор кодека                     : 55
Идентификатор кодека/Подсказка           : MP3
Продолжительность                        : 1 ч. 24 м.
Вид битрейта                             : Постоянный
Битрейт                                  : 192 Кбит/сек
Каналы                                   : 2 канала
Частота                                  : 48,0 КГц
Метод сжатия                             : С потерями
Размер потока                            : 116 Мбайт (10%)
Выравнивание                             : Соединение по промежуткам
Продолжительность промежутка             : 42  мс. (1,00 видеокадр)
Время предзагрузки промежутка            : 504  мс.
Библиотека кодирования                   : LAME3.99.5
-
-Скриншоты:
-
-
1. Открыть торрент
2. Снять галки с тех файлов торрента, которые мы не хотим закачивать. Оставляем только на нужных нам файлах (файле).
3. Нажать О.К.
В клиенте utorrent
Инструкция
1) Открыть торрент

2) Снять галки с тех файлов торрента, которые мы не хотим закачивать:
* либо вручную, снимая с каждого файла галку( скрин №1)
* либо, нажав кнопку "Снять метки (Select None)", сняв сразу со всех файлов(скрин №2)
№1

№2

Оставляем только на нужных нам файлах (файле).

3)Нажать О.К
-Добавлена вторая, заключительная, серия первого сезона
Download / Скачать

Хотите скачать бесплатно? Зарегистрируйтесь на сайте (ссылка на регистрацию). Pirat.ca - самый быстрый торрент трекер в рунете!

Как скачивать  ·   Что такое торрент  ·   Рейтинг и ограничения



Последний раз редактировалось: kugesan (2014-09-07 10:38), всего редактировалось 1 раз

Vade7Mecum

Морской Волк

Пост 06-Сен-2014 00:58 (спустя 13 часов)

[Q] 

Всего две серии?
[Профиль]  [ЛС] 

kugesan ®

56634

Пост 06-Сен-2014 11:21 (спустя 10 часов)

[Q] 

Это мини сериал.

_________________

В мире две бесконечности: вселенная и человеческая глупость - Альберт Эйнштен
«Можно вытащить человека из грязи, но нельзя вытащить грязь из человека»!
[Профиль]  [ЛС] 

kugesan ®

56634

Пост 07-Сен-2014 10:38 (спустя 23 часа)

[Q] 

Добавлена вторая, заключительная, серия первого сезона

_________________

В мире две бесконечности: вселенная и человеческая глупость - Альберт Эйнштен
«Можно вытащить человека из грязи, но нельзя вытащить грязь из человека»!
[Профиль]  [ЛС] 

Vintorezov REG 39

Легенда

176

Пост 07-Сен-2014 17:01 (спустя 6 часов)

[Q] 

А что случилось с Гудини ?????? Отказался колдовать что-ли ??? Ой как стыдно-то...
[Профиль]  [ЛС] 
Показать сообщения:    
Ответить на тему

Текущее время: Сегодня 06:23

Часовой пояс: GMT + 4



Вы не можете начинать темы
Вы не можете отвечать на сообщения
Вы не можете редактировать свои сообщения
Вы не можете удалять свои сообщения
Вы не можете голосовать в опросах
Вы не можете прикреплять файлы к сообщениям
Вы не можете скачивать файлы

▼ Вниз