ML
     
  Уважаемый Гость!
Вы можете поддержать проект и зарегистрироваться у наших партнеров - онлайн-стратегия MyLands. При регистрации в игре Вы получите код, который сможете активировать после регистрации на pirat.ca и получить 1000 дублонов.

Ваш код:
11f49771fdf057c9d51610e4a0925c3b46ddb655
 
     

Гудини / Houdini / Сезон: 1 [Полный] Серии: 2 из 2 (Ули Эдель / Uli Edel) [2014 г., биография, драма, WEB-DLRip, 1080p] MVO [AlexFilm] + Original (Eng) + Sub (Rus)

Ответить на тему
 
Автор
Сообщение

Пост 12-Сен-2014 15:33

[Q] 

AnastasWolf

Гудини / Houdini- - Год выпуска: 2014 г.
Производство: Канада
Жанр: биография, драма
Продолжительность: 2x ~ 01:16:00
Мировая премьера: 1 сентября 2014
Перевод: Профессиональный (многоголосый, закадровый) [AlexFilm]
Оригинальный аудиопоток: английский
Режиссёр: Ули Эдель / Uli Edel-В ролях: Эдриен Броуди, Кристен Коннолли, Ивэн Джоунс, Том Бенедикт Найт, Эстер Оноди, Иван Камарас, Меган Доддс-Описание: В основу сюжета легла насыщенная событиями биография Гарри Гудини (Эдриен Броуди) — от бедности до всемирной славы, от цирковых подмостков до лучших концертных залов Европы и Америки. Зрители смогут посетить поражающее воображение закулисье магических шоу и узнать тайны таких опасных трюков, как побег из китайской водной камеры пыток. Создатели проекта не обошли вниманием и другие сферы деятельности великого иллюзиониста — его участие в международном шпионаже и борьбу с псевдоспиритуалистами. При этом самый ловкий и везучий фокусник в истории представлен в новом шоу как обычный человек со своими слабостями и страхами. Гарри Гудини неустанно преодолевал себя и в итоге стал настоящей мировой легендой.
- *7.8 *8.0Качество видео: WEB-DLRip (1080p)
Контейнер: MKV
Видео кодек: AVC
Аудио кодек: AC3
Видео: 1912x1072, ~ 4666 kbps avg, 23.976 fps
Аудио #1: Rus: 384 kbps, 6 ch, 48.0 kHz
Аудио #2: Eng: 384 kbps, 6 ch, 48.0 kHz
Cубтитры: русские
Общее
Уникальный идентификатор : 175359461242952700847001074300809335652 (0x83ED00F55CEA87E882839992FF7B5364)
Полное имя : Houdini.2014.Part.1.WEB-DL.1080p.Rus.Eng.AlexFilm.mkv
Формат : Matroska
Версия формата : Version 4 / Version 2
Размер файла : 3,26 Гбайт
Продолжительность : 1 ч. 24 м.
Общий поток : 5545 Кбит/сек
Дата кодирования : UTC 2014-09-06 20:38:42
Программа кодирования : mkvmerge v6.6.0 ('The Edge Of The In Between') built on Dec 1 2013 17:55:00
Библиотека кодирования : libebml v1.3.0 + libmatroska v1.4.1
Attachment : Yes / Yes
Видео
Идентификатор : 1
Формат : AVC
Формат/Информация : Advanced Video Codec
Профиль формата : [email protected]
Параметр CABAC формата : Да
Параметр ReFrames формата : 4 кадра
Идентификатор кодека : V_MPEG4/ISO/AVC
Продолжительность : 1 ч. 24 м.
Битрейт : 4667 Кбит/сек
Ширина : 1912 пикселей
Высота : 1072 пикселя
Соотношение сторон : 16:9
Режим частоты кадров : Постоянный
Частота кадров : 23,976 кадра/сек
Цветовое пространство : YUV
Субдискретизация насыщенности : 4:2:0
Битовая глубина : 8 бит
Тип развёртки : Прогрессивная
Бит/(Пиксели*Кадры) : 0.095
Размер потока : 2,74 Гбайт (84%)
Язык : English
Default : Да
Forced : Нет
Основные цвета : BT.709
Характеристики трансфера : BT.709
Коэффициенты матрицы : BT.709
Аудио #1
Идентификатор : 2
Формат : AC-3
Формат/Информация : Audio Coding 3
Расширение режима : CM (complete main)
Параметр Endianness формата : Big
Идентификатор кодека : A_AC3
Продолжительность : 1 ч. 24 м.
Вид битрейта : Постоянный
Битрейт : 384 Кбит/сек
Каналы : 6 каналов
Расположение каналов : Front: L C R, Side: L R, LFE
Частота : 48,0 КГц
Битовая глубина : 16 бит
Метод сжатия : С потерями
Размер потока : 231 Мбайт (7%)
Заголовок : DD5.1 AlexFilm
Язык : Russian
Default : Да
Forced : Нет
Аудио #2
Идентификатор : 3
Формат : AC-3
Формат/Информация : Audio Coding 3
Расширение режима : CM (complete main)
Параметр Endianness формата : Big
Идентификатор кодека : A_AC3
Продолжительность : 1 ч. 24 м.
Вид битрейта : Постоянный
Битрейт : 384 Кбит/сек
Каналы : 6 каналов
Расположение каналов : Front: L C R, Side: L R, LFE
Частота : 48,0 КГц
Битовая глубина : 16 бит
Метод сжатия : С потерями
Размер потока : 231 Мбайт (7%)
Заголовок : DD5.1 Original
Язык : English
Default : Нет
Forced : Нет
Текст
Идентификатор : 4
Формат : ASS
Идентификатор кодека : S_TEXT/ASS
Идентификатор кодека/Информация : Advanced Sub Station Alpha
Метод сжатия : Без потерь
Заголовок : Forced
Язык : Russian
Default : Да
Forced : Нет
Download / Скачать

Хотите скачать бесплатно? Зарегистрируйтесь на сайте (ссылка на регистрацию). Pirat.ca - самый быстрый торрент трекер в рунете!

Как скачивать  ·   Что такое торрент  ·   Рейтинг и ограничения

Пост 12-Сен-2014 22:39 (спустя 7 часов)

Топик был перенесен из форума Зарубежные сериалы (Трюм) в форум Зарубежные сериалы
kugesan
 

olipov

Легенда

Пост 15-Сен-2014 00:35 (спустя 2 дня 9 часов)

[Q] 

а где отзывы?
[Профиль]  [ЛС] 

AnastasWolf ®

3476

Пост 16-Сен-2014 01:01 (спустя 1 день)

[Q] 

olipov, если мой отзыв будет воспринят объективно, то мне этот сериал очень понравился. Красиво и правдоподобно передана жизнь того времени, хорошая игра актёров во главе с превосходным Эдриеном Броуди.
Повеселил эпизод с Распутиным... актуально...
Вообще-то, я всегда стараюсь делать скриншоты так, чтобы давать небольшое представление о раздаче. Да и рейтинги весьма красноречивы.

_________________
[Профиль]  [ЛС] 

Vintorezov REG 39

Легенда

176

Пост 06-Окт-2014 20:57 (спустя 20 дней)

[Q] 

Фильм не плохой на один раз пойдёт Спасибо!!!
[Профиль]  [ЛС] 

AnastasWolf ®

3476

Пост 07-Окт-2014 12:29 (спустя 15 часов)

[Q] 

Vintorezov REG 39, aa

_________________
[Профиль]  [ЛС] 

Victorsalata

Корсар

Пост 07-Окт-2014 15:12 (спустя 2 часа 42 минуты)

[Q] 

Как-то не очень верится актеру Эдриену Броуди (учитывая его телосложение), что перед нами известный миру своей волей и физической подготовкой Гудини
[Профиль]  [ЛС] 

AnastasWolf ®

3476

Пост 09-Окт-2014 09:19 (спустя 1 день 18 часов)

[Q] 

Victorsalata, как-то странно, что у тебя сила воли и физическая подготовка ассоциируются с полнотой!
Похоже, ты накрепко скован своими стереотипами.

И, так как ты вряд ли догадаешься, да, это фото Гарри Гудини.

_________________
[Профиль]  [ЛС] 
Показать сообщения:    
Ответить на тему

Текущее время: Сегодня 03:06

Часовой пояс: GMT + 4



Вы не можете начинать темы
Вы не можете отвечать на сообщения
Вы не можете редактировать свои сообщения
Вы не можете удалять свои сообщения
Вы не можете голосовать в опросах
Вы не можете прикреплять файлы к сообщениям
Вы не можете скачивать файлы

▼ Вниз