ML
     
  Уважаемый Гость!
Вы можете поддержать проект и зарегистрироваться у наших партнеров - онлайн-стратегия MyLands. При регистрации в игре Вы получите код, который сможете активировать после регистрации на pirat.ca и получить 1000 дублонов.

Ваш код:
822959f93c00d34653763d5bbf9ee9a7134af98a
 
     

Последний человек на Земле / The Last Man on Earth / Сезон 1 / Полный / Серии: 13 из 13 (Фил Лорд / Phil Lord, ...) [2015г., фантастика, боевик, комедия, ... WEB-DLRip 720p] VO (Кубик в Кубе) + Original (Eng)

Ответить на тему
 
Автор
Сообщение

Пост 13-Сен-2014 22:40

[Q] 

kugesan

Последний человек на Земле
The Last Man on Earth
- Русское название: Последний человек на Земле
Оригинальное название: The Last Man on Earth
Страна: США
Год выпуска: 2015
Жанр: фантастика, боевик, комедия, ...-Релиз:
Перевод: Профессиональный (двухголосый , закадровый)
Оригинальный аудиопоток: английский-Над релизом работали:
Работа с видео: whip93
Работа со звуком: messafan
Перевод: El_Brujo-Премьера (мир): 1 марта 2015-Режиссер: Фил Лорд / Phil Lord, Кристофер Миллер / Christopher Miller, Питер Атенсио / Peter Atencio, ...
В главных ролях: Уилл Форте, Кристен Шаал, Александра Даддарио, Клеопатра Коулман, Дженьюэри Джонс, Мэл Родригез, ...-Описание фильма:
Фил Миллер когда-то был просто обычным парнем, который любил свою семью и ненавидел свою работу в банке — теперь он последняя надежда человечества. Найдет ли он когда-нибудь другого живого человека на планете?-Сезон: 1
Серии: 13 из 13 серий
Продолжительность: ~ 00:23:00 мин серия-
Качество видео: WEB-DL 720p
Контейнер: MKV
Видео кодек: AVC ([email protected])
Аудио кодек: AC-3
Видео: AVC at 3804 Кбит/сек: 1280 x 720 (1.778) at 23.976 fps
Аудио Rus: AC-3 at 384 Кбит/сек: 6 каналов, 48,0 КГц |Кубик в Кубе|
Аудио Eng: AC-3 at 384 Кбит/сек: 6 каналов, 48,0 КГц |Original|
Cубтитры: отсутствуют
-
-
  • Выживший в Тусоне (Alive in Tucson)
  • Слон в комнате (The Elephant in the Room)
  • Шары изюминки и свадебный колокольчик (Raisin Balls and Wedding Bells)
  • Милая Мелисса (Sweet Melissa)
  • Слон в комнате (Dunk the Skunk)
  • Какой то чертов толстяк (Some Friggin' Fat Dude)
  • Она сводит меня с ума (She Drives Me Crazy)
  • Двигаюсь Вперёд (Mooovin' In)
  • Переделывать (The Do-Over)
  • Шалости жены (Pranks for Nothin')
  • Переехал в Тампу (Moved to Tampa)
  • Тандимен может (The Tandyman Can)
  • Вверните луну (Screw the Moon)
-
Общее
Уникальный идентификатор : 177247274677293207968210571230837062631 (0x85589558CC56257E93C496347875BBE7)
Полное имя : E:\_Сериалы\_Сериалы\Последний человек на Земле\The.Last.Man.On.Earth.S01.720p.WEB-DL.CasStudio\The.Last.Man.On.Earth.S01E03.720p.WEB-DL.mkv
Формат : Matroska
Версия формата : Version 4 / Version 2
Размер файла : 778 Мбайт
Продолжительность : 23 м.
Общий поток : 4665 Кбит/сек
Название фильма : The Last Man on Earth s01e03 release by messafan for CasStudio.TV
Дата кодирования : UTC 2015-03-10 18:48:40
Программа кодирования : mkvmerge v6.7.0 ('Back to the Ground') 64bit built on Jan 8 2014 15:10:52
Библиотека кодирования : libebml v1.3.0 + libmatroska v1.4.1
Видео
Идентификатор : 1
Формат : AVC
Формат/Информация : Advanced Video Codec
Профиль формата : [email protected]
Параметр CABAC формата : Нет
Параметр ReFrames формата : 2 кадра
Идентификатор кодека : V_MPEG4/ISO/AVC
Продолжительность : 23 м.
Битрейт : 3804 Кбит/сек
Ширина : 1280 пикселей
Высота : 720 пикселей
Соотношение сторон : 16:9
Режим частоты кадров : Постоянный
Частота кадров : 23,976 кадра/сек
Цветовое пространство : YUV
Субдискретизация насыщенности : 4:2:0
Битовая глубина : 8 бит
Тип развёртки : Прогрессивная
Бит/(Пиксели*Кадры) : 0.172
Размер потока : 635 Мбайт (82%)
Язык : English
Default : Да
Forced : Нет
Основные цвета : BT.709
Характеристики трансфера : BT.709
Коэффициенты матрицы : BT.709
Аудио #1
Идентификатор : 2
Формат : AC-3
Формат/Информация : Audio Coding 3
Расширение режима : CM (complete main)
Параметр Endianness формата : Big
Идентификатор кодека : A_AC3
Продолжительность : 23 м.
Вид битрейта : Постоянный
Битрейт : 384 Кбит/сек
Каналы : 6 каналов
Расположение каналов : Front: L C R, Side: L R, LFE
Частота : 48,0 КГц
Битовая глубина : 16 бит
Метод сжатия : С потерями
Размер потока : 64,1 Мбайт (8%)
Заголовок : KvK 5.1
Язык : Russian
Default : Да
Forced : Нет
Аудио #2
Идентификатор : 3
Формат : AC-3
Формат/Информация : Audio Coding 3
Расширение режима : CM (complete main)
Параметр Endianness формата : Big
Идентификатор кодека : A_AC3
Продолжительность : 23 м.
Вид битрейта : Постоянный
Битрейт : 384 Кбит/сек
Каналы : 6 каналов
Расположение каналов : Front: L C R, Side: L R, LFE
Частота : 48,0 КГц
Битовая глубина : 16 бит
Метод сжатия : С потерями
Размер потока : 64,1 Мбайт (8%)
Заголовок : English 5.1
Язык : English
Default : Нет
Forced : Нет
-
-Скриншоты:
-
-
1. Открыть торрент
2. Снять галки с тех файлов торрента, которые мы не хотим закачивать. Оставляем только на нужных нам файлах (файле).
3. Нажать О.К.
В клиенте utorrent
Инструкция
1) Открыть торрент

2) Снять галки с тех файлов торрента, которые мы не хотим закачивать:
* либо вручную, снимая с каждого файла галку( скрин №1)
* либо, нажав кнопку "Снять метки (Select None)", сняв сразу со всех файлов(скрин №2)
№1

№2

Оставляем только на нужных нам файлах (файле).

3)Нажать О.К
-Добавлена тринадцатая, заключительная, серия первого сезона
Download / Скачать

Хотите скачать бесплатно? Зарегистрируйтесь на сайте (ссылка на регистрацию). Pirat.ca - самый быстрый торрент трекер в рунете!

Как скачивать  ·   Что такое торрент  ·   Рейтинг и ограничения



Последний раз редактировалось: kugesan (2015-05-06 23:15), всего редактировалось 15 раз(а)

BofRank

Корсар

535

Пост 21-Мар-2015 21:27 (спустя 6 месяцев 7 дней)

[Q] 

Наслышан) Будем смотреть..) Автору респект!!! Лови бочку
[Профиль]  [ЛС] 

kugesan ®

56690

Пост 21-Мар-2015 23:07 (спустя 1 час 39 минут)

[Q] 

Приятного просмотра!!!

_________________

В мире две бесконечности: вселенная и человеческая глупость - Альберт Эйнштен
«Можно вытащить человека из грязи, но нельзя вытащить грязь из человека»!
[Профиль]  [ЛС] 

urban.sasha

Штурман

Пост 26-Мар-2015 00:17 (спустя 4 дня)

[Q] 

Мне понравилось !COOL! прикольнывй сериал )))
[Профиль]  [ЛС] 

Stalker_29

Корсар

Пост 04-Апр-2015 15:32 (спустя 9 дней)

[Q] 

Большое спасибо, уважаемый Когесан!)) Автору респект!!!
[Профиль]  [ЛС] 

lex-sr

Корсар

Пост 04-Апр-2015 15:54 (спустя 22 минуты)

[Q] 

Вырожаю свою благодарность за контент
[Профиль]  [ЛС] 

kugesan ®

56690

Пост 05-Апр-2015 20:07 (спустя 1 день 4 часа)

[Q] 

Приятного просмотра!!!

_________________

В мире две бесконечности: вселенная и человеческая глупость - Альберт Эйнштен
«Можно вытащить человека из грязи, но нельзя вытащить грязь из человека»!
[Профиль]  [ЛС] 

kugesan ®

56690

Пост 19-Апр-2015 22:34 (спустя 14 дней)

[Q] 

Добавлена десятая серия первого сезона

_________________

В мире две бесконечности: вселенная и человеческая глупость - Альберт Эйнштен
«Можно вытащить человека из грязи, но нельзя вытащить грязь из человека»!
[Профиль]  [ЛС] 

zvezda_2s

Корсар

Пост 21-Апр-2015 17:39 (спустя 1 день 19 часов)

[Q] 

Еще один сериальчик!
[Профиль]  [ЛС] 

kotafanas

Морской Волк

95

Пост 23-Апр-2015 12:50 (спустя 1 день 19 часов)

[Q] 

Лучше бы бороду не сбривал!!! Прикольный сериал)))

_________________



[Профиль]  [ЛС] 

kugesan ®

56690

Пост 06-Май-2015 23:16 (спустя 13 дней)

[Q] 

Добавлена тринадцатая, заключительная, серия первого сезона

_________________

В мире две бесконечности: вселенная и человеческая глупость - Альберт Эйнштен
«Можно вытащить человека из грязи, но нельзя вытащить грязь из человека»!
[Профиль]  [ЛС] 

Daar

Пост 07-Май-2015 01:05 (спустя 1 час 49 минут)

[Q] 

Как сериал и озвучка?
А то что-то на Лосте не увидел его, может фигня?
[Профиль]  [ЛС] 

Пост 07-Май-2015 23:48 (спустя 22 часа)

Топик был перенесен из форума Сериалы в эфире в форум Зарубежные сериалы
Андря
 

ramzzess1

Шкипер

Пост 26-Сен-2015 01:18 (спустя 4 месяца 19 дней)

[Q] 

спасибо, качаю
[Профиль]  [ЛС] 
Показать сообщения:    
Ответить на тему

Текущее время: Сегодня 05:52

Часовой пояс: GMT + 4



Вы не можете начинать темы
Вы не можете отвечать на сообщения
Вы не можете редактировать свои сообщения
Вы не можете удалять свои сообщения
Вы не можете голосовать в опросах
Вы не можете прикреплять файлы к сообщениям
Вы не можете скачивать файлы

▼ Вниз