ML
     
  Уважаемый Гость!
Вы можете поддержать проект и зарегистрироваться у наших партнеров - онлайн-стратегия MyLands. При регистрации в игре Вы получите код, который сможете активировать после регистрации на pirat.ca и получить 1000 дублонов.

Ваш код:
5f4e94775bc0501caff7b254e79328d304c817d9
 
     

В погоне за тенями / Chasing Shadows (Сезон 1 / Полный / Серии: 4 из 4) (Кристофер Менол / Christopher Menaul) [2014г., триллер, ... WEB-DLRip] MVO (BaibaKo) + Original (Eng)

Ответить на тему
 
Автор
Сообщение

Пост 13-Сен-2014 23:05

[Q] 

kugesan

В погоне за тенями / Chasing Shadows- Русское название: В погоне за тенями
Оригинальное название: Chasing Shadows
Страна: Великобритания
Год выпуска: 2014
Жанр: триллер, ...-Релиз:
Перевод: Профессиональный (многоголосый, закадровый)
Оригинальный аудиопоток: английский-Над релизом работали:
Перевод: vipere
Озвучка: Anna_Smile, Ольга Мотрич, Олекса Мельник и Акмал Гурезов
Монтаж: Павел Дежин
Обложка: Антон Максимов -Премьера (мир): 4 сентября 2014-Режиссер: Кристофер Менол / Christopher Menaul
В главных ролях: Рис Шерсмит, Алекс Кингстон, Ноэль Кларк, Элфи Филд, Рафаэль Перейра-Эдвардс, Никон Караман, Джеймс Френсис Эндрюс, Ласко Аткинс, Линда Барон, Дильяна Буклиева, Крис Коулин, Имоджен Дэйнес , ...-Описание фильма:
Чтобы найти серийных убийц, нужно знать, как они живут, работают, изучать их поведение. Лучше всего это может получиться у необщительного странноватого полицейского Шона Стоуна, особенности мышления которого позволяют раскрыть самые сложные преступления.-Сезон: 1
Серии: 4 из 4 серий
Продолжительность: ~ 00:43:00 мин серия-Качество видео: WEB-DLRip
Формат: AVI
Видеокодек: XviD
Аудиокодек: Mp3
Видео: MPEG-4 Visual at 1505 Кбит/сек: 720 x 400 (1.800) at 23.976 fps, 0.21 Бит/Пиксели
Аудио Rus: MPEG Audio at 192 Кбит/сек, 2 канала, 48,0 КГц |BaibaKo|
Аудио Eng: MPEG Audio at 192 Кбит/сек: 2 канала, 48,0 КГц |Original|
-
-
Код:
Общее
Полное имя                               : E:\_Сериалы\_Сериалы\В погоне за тенями\Chasing Shadows.s01.BaibaKo\Chasing.Shadows.s01e01.WEB-DLRip.XviD.Rus-Eng.BaibaKo.tv.avi
Формат                                   : AVI
Формат/Информация                        : Audio Video Interleave
Размер файла                             : 591 Мбайт
Продолжительность                        : 43 м.
Общий поток                              : 1903 Кбит/сек
Программа кодирования                    : VirtualDubMod 1.5.10.2 (build 2540/release)
Библиотека кодирования                   : VirtualDubMod build 2540/release
Видео
Идентификатор                            : 0
Формат                                   : MPEG-4 Visual
Профиль формата                          : Advanced [email protected]
Параметр BVOP формата                    : 2
Параметр QPel формата                    : Нет
Параметр GMC формата                     : Без точки перехода
Параметр матрицы формата                 : Default (H.263)
Идентификатор кодека                     : XVID
Идентификатор кодека/Подсказка           : XviD
Продолжительность                        : 43 м.
Битрейт                                  : 1505 Кбит/сек
Ширина                                   : 720 пикселей
Высота                                   : 400 пикселей
Соотношение сторон                       : 16:9
Частота кадров                           : 25,000 кадров/сек
Цветовое пространство                    : YUV
Субдискретизация насыщенности            : 4:2:0
Битовая глубина                          : 8 бит
Тип развёртки                            : Прогрессивная
Метод сжатия                             : С потерями
Бит/(Пиксели*Кадры)                      : 0.209
Размер потока                            : 467 Мбайт (79%)
Библиотека кодирования                   : XviD 1.2.1 (UTC 2008-12-04)
Аудио #1
Идентификатор                            : 1
Формат                                   : MPEG Audio
Версия формата                           : Version 1
Профиль формата                          : Layer 3
Режим                                    : Joint stereo
Расширение режима                        : MS Stereo
Идентификатор кодека                     : 55
Идентификатор кодека/Подсказка           : MP3
Продолжительность                        : 43 м.
Вид битрейта                             : Постоянный
Битрейт                                  : 192 Кбит/сек
Каналы                                   : 2 канала
Частота                                  : 48,0 КГц
Метод сжатия                             : С потерями
Размер потока                            : 59,6 Мбайт (10%)
Выравнивание                             : Соединение по промежуткам
Продолжительность промежутка             : 40  мс. (1,00 видеокадр)
Время предзагрузки промежутка            : 504  мс.
Аудио #2
Идентификатор                            : 2
Формат                                   : MPEG Audio
Версия формата                           : Version 1
Профиль формата                          : Layer 3
Режим                                    : Joint stereo
Расширение режима                        : MS Stereo
Идентификатор кодека                     : 55
Идентификатор кодека/Подсказка           : MP3
Продолжительность                        : 43 м.
Вид битрейта                             : Постоянный
Битрейт                                  : 192 Кбит/сек
Каналы                                   : 2 канала
Частота                                  : 48,0 КГц
Метод сжатия                             : С потерями
Размер потока                            : 59,6 Мбайт (10%)
Выравнивание                             : Соединение по промежуткам
Продолжительность промежутка             : 40  мс. (1,00 видеокадр)
Время предзагрузки промежутка            : 504  мс.
Библиотека кодирования                   : LAME3.99.5
-
-Скриншоты:
-
-
1. Открыть торрент
2. Снять галки с тех файлов торрента, которые мы не хотим закачивать. Оставляем только на нужных нам файлах (файле).
3. Нажать О.К.
В клиенте utorrent
Инструкция
1) Открыть торрент

2) Снять галки с тех файлов торрента, которые мы не хотим закачивать:
* либо вручную, снимая с каждого файла галку( скрин №1)
* либо, нажав кнопку "Снять метки (Select None)", сняв сразу со всех файлов(скрин №2)
№1

№2

Оставляем только на нужных нам файлах (файле).

3)Нажать О.К
-Добавлена четвертая, заключительная, серия первого сезона
Download / Скачать

Хотите скачать бесплатно? Зарегистрируйтесь на сайте (ссылка на регистрацию). Pirat.ca - самый быстрый торрент трекер в рунете!

Как скачивать  ·   Что такое торрент  ·   Рейтинг и ограничения



Последний раз редактировалось: kugesan (2014-10-05 22:47), всего редактировалось 3 раз(а)

М_Э_Б_У_К_Х

Шкипер

129

Пост 14-Сен-2014 13:23 (спустя 14 часов)

[Q] 

Алекс Кингстон и Ноэль Кларк в одном проекте - снова британская коммуналка в действии. Ох, это издевательство с их стороны - делать столько способных заинтересовать сериалов так одновременно. Ведь хочется посмотреть каждый из них, а времени, как это не прискорбно, катастрофически не хватает.
Спасибо за раздачу Автору респект!!! Лови бочку

_________________
↓ Не поленись нажать на ссылку! ↓

↑ Не поленись нажать на ссылку! ↑
[Профиль]  [ЛС] 

kugesan ®

56607

Пост 16-Сен-2014 22:44 (спустя 2 дня 9 часов)

[Q] 

М_Э_Б_У_К_Х, Приятного просмотра!!!

_________________

В мире две бесконечности: вселенная и человеческая глупость - Альберт Эйнштен
«Можно вытащить человека из грязи, но нельзя вытащить грязь из человека»!
[Профиль]  [ЛС] 

kugesan ®

56607

Пост 05-Окт-2014 22:47 (спустя 19 дней)

[Q] 

Добавлена четвертая, заключительная, серия первого сезона

_________________

В мире две бесконечности: вселенная и человеческая глупость - Альберт Эйнштен
«Можно вытащить человека из грязи, но нельзя вытащить грязь из человека»!
[Профиль]  [ЛС] 

Пост 05-Окт-2014 23:41 (спустя 53 минуты)

Топик был перенесен из форума Сериалы в эфире в форум Зарубежные сериалы
TERMOS
 

jofrei53

Корсар

Пост 06-Окт-2014 14:33 (спустя 15 часов)

[Q] 

Спасибо!!! Спасибо!!! Автору респект!!!
[Профиль]  [ЛС] 

Mailo86

Штурман

Пост 06-Окт-2014 18:01 (спустя 3 часа)

[Q] 

Одобрямс! Стоящий фильм!!!
[Профиль]  [ЛС] 
Показать сообщения:    
Ответить на тему

Текущее время: Сегодня 15:34

Часовой пояс: GMT + 4



Вы не можете начинать темы
Вы не можете отвечать на сообщения
Вы не можете редактировать свои сообщения
Вы не можете удалять свои сообщения
Вы не можете голосовать в опросах
Вы не можете прикреплять файлы к сообщениям
Вы не можете скачивать файлы

▼ Вниз