ML
     
  Уважаемый Гость!
Вы можете поддержать проект и зарегистрироваться у наших партнеров - онлайн-стратегия MyLands. При регистрации в игре Вы получите код, который сможете активировать после регистрации на pirat.ca и получить 1000 дублонов.

Ваш код:
fe4e93b754a7c2b306fcfc8bc32532ea1cf59d3b
 
     

Уличный боец: Кулак убийцы / Street Fighter: Assassin's Fist / Сезон: 1 / Серии: 0-12 из 12 (Джои Анса /Joey Ansah) [2014 г., Боевик, триллер, драма, приключения, WEB-DLRip] VO (xaros) + Original (Eng)

Ответить на тему
 
Автор
Сообщение

Пост 19-Сен-2014 15:31

[Q] 

xaroszevs

Шкипер

-Уличный боец: Кулак убийцы / Street Fighter: Assassin's Fist-- Производство: Великобритания, Assassin's Fist Limited, Evropa Films, Gloucester Place Films
Жанр: Боевик, триллер, драма, приключения
Год выпуска: 2014 г.
Продолжительность: 00:13:00
Перевод: Любительский (одноголосый, закадровый) [xaros]
Оригинальный аудиопоток: английский
Режиссер: Джои Анса /Joey Ansah-В ролях: Акира Койеяма, Крис Ховард, Майк Мо, Того Игава, Марк Киллин, Харукико Яманоути, Шоген, Гаку Спэйс, Джои Анса-Описание: Сериал рассказывает о периоде становления бойцами Рю и Кена, когда они жили традиционной жизнью воинов в Японии. Парни и не подозревали, что являются последними людьми, познавшими древний боевой стиль, известный как «Ансацукен» (Кулак убийцы)…-
Качество видео: WEB-DLRip
Контейнер: MKV
Видео кодек: H.264
Аудио кодек: AC3
Видео: 1280x528(2.40:1), ~ 3900 kbps, 29.970 fps
Аудио(RUS): 384 kbps, 2ch, 48KHz [xaros]
Аудио(ENG): 384 kbps, 2ch, 48KHz
Cубтитры: отсутствуют
Релиз:
Перевод Áлексис, xaros(ред.)
Озвучка и работа со звуком xaros
00. Alpha / Альфа
01. Beginnings / Начало
02. Round 1 - Fight / Раунд 1 - В бой!
03. Satsui No Hado / Сацуи но хадо
04. A Rough Night / Бурная ночь
05. Banished / Изгнанный
06. Demons Within / Внутренние демоны
07. Path of the Shin Oni / Путь син они
08. The Ultimate Sacrifice / Последняя жертва
09. The Calm Before the Storm / Затишье перед бурей
10. The Raging Demon / Разъярённый демон
11. May the Best Man Win / Пусть победит сильнейший
12. End Game / Игры кончились
General
Unique ID : 178021211324141080660651745534859733642 (0x85EDA35E9E87018C990321198E12EA8A)
Complete name : B:\Сериалы, шоу\Street Fighter - Assassin's Fist.s01.720p.webrip.xaros\Street Fighter - Assassin's Fist.s01e03 - Satsui No Hado.720p.webrip.xaros.mkv
Format : Matroska
Format version : Version 4 / Version 2
File size : 356 MiB
Duration : 12mn 31s
Overall bit rate mode : Variable
Overall bit rate : 3 980 Kbps
Encoded date : UTC 2014-09-12 14:41:26
Writing application : mkvmerge v7.0.0 ('Where We Going') 32bit built on Jun 9 2014 15:08:34
Writing library : libebml v1.3.0 + libmatroska v1.4.1
DURATION : 00:12:30.816000000
NUMBER_OF_FRAMES : 23463
NUMBER_OF_BYTES : 36039168
_STATISTICS_WRITING_APP : mkvmerge v7.0.0 ('Where We Going') 32bit built on Jun 9 2014 15:08:34
_STATISTICS_WRITING_DATE_UTC : 2014-09-12 14:41:26
_STATISTICS_TAGS : BPS DURATION NUMBER_OF_FRAMES NUMBER_OF_BYTES
Video
ID : 1
Format : AVC
Format/Info : Advanced Video Codec
Format profile : [email protected]
Format settings, CABAC : Yes
Format settings, ReFrames : 5 frames
Codec ID : V_MPEG4/ISO/AVC
Duration : 12mn 31s
Bit rate mode : Variable
Bit rate : 3 208 Kbps
Maximum bit rate : 40.0 Mbps
Width : 1 280 pixels
Height : 528 pixels
Display aspect ratio : 2.40:1
Frame rate : 29.970 fps
Color space : YUV
Chroma subsampling : 4:2:0
Bit depth : 8 bits
Scan type : MBAFF
Bits/(Pixel*Frame) : 0.158
Stream size : 281 MiB (79%)
Writing library : x264 core 138 r2358 9e941d1
Encoding settings : cabac=1 / ref=6 / deblock=1:0:0 / analyse=0x3:0x133 / me=umh / subme=10 / psy=1 / psy_rd=1.00:0.00 / mixed_ref=1 / me_range=24 / chroma_me=1 / trellis=2 / 8x8dct=1 / cqm=0 / deadzone=21,11 / fast_pskip=1 / chroma_qp_offset=-2 / threads=6 / lookahead_threads=1 / sliced_threads=0 / slices=4 / nr=0 / decimate=1 / interlaced=tff / bluray_compat=1 / constrained_intra=0 / bframes=3 / b_pyramid=1 / b_adapt=2 / b_bias=0 / direct=3 / weightb=1 / open_gop=1 / weightp=0 / keyint=29 / keyint_min=1 / scenecut=40 / intra_refresh=0 / rc_lookahead=29 / rc=2pass / mbtree=1 / bitrate=3208 / ratetol=1.0 / qcomp=0.60 / qpmin=0 / qpmax=69 / qpstep=4 / cplxblur=20.0 / qblur=0.5 / vbv_maxrate=40000 / vbv_bufsize=30000 / nal_hrd=vbr / ip_ratio=1.40 / aq=1:1.00
Language : English
Default : Yes
Forced : No
DURATION : 00:12:30.850000000
NUMBER_OF_FRAMES : 22503
NUMBER_OF_BYTES : 301345747
_STATISTICS_WRITING_APP : mkvmerge v7.0.0 ('Where We Going') 32bit built on Jun 9 2014 15:08:34
_STATISTICS_WRITING_DATE_UTC : 2014-09-12 14:41:26
_STATISTICS_TAGS : BPS DURATION NUMBER_OF_FRAMES NUMBER_OF_BYTES
Audio #1
ID : 2
Format : AC-3
Format/Info : Audio Coding 3
Mode extension : CM (complete main)
Codec ID : A_AC3
Duration : 12mn 31s
Bit rate mode : Constant
Bit rate : 384 Kbps
Channel(s) : 2 channels
Channel positions : Front: L R
Sampling rate : 48.0 KHz
Bit depth : 16 bits
Compression mode : Lossy
Stream size : 34.4 MiB (10%)
Title : xaros
Language : Russian
Default : Yes
Forced : No
Audio #2
ID : 3
Format : AC-3
Format/Info : Audio Coding 3
Mode extension : CM (complete main)
Codec ID : A_AC3
Duration : 12mn 31s
Bit rate mode : Constant
Bit rate : 384 Kbps
Channel(s) : 2 channels
Channel positions : Front: L R
Sampling rate : 48.0 KHz
Bit depth : 16 bits
Compression mode : Lossy
Stream size : 34.4 MiB (10%)
Language : English
Default : No
Forced : No
Download / Скачать

Хотите скачать бесплатно? Зарегистрируйтесь на сайте (ссылка на регистрацию). Pirat.ca - самый быстрый торрент трекер в рунете!

Как скачивать  ·   Что такое торрент  ·   Рейтинг и ограничения



Последний раз редактировалось: xaroszevs (2014-09-21 14:04), всего редактировалось 2 раз(а)

Пост 19-Сен-2014 17:10 (спустя 1 час 38 минут)

Топик был перенесен из форума Зарубежные сериалы (Трюм) в форум Сериалы в эфире
kugesan
 

xaroszevs ®

Шкипер

108

Пост 20-Сен-2014 09:49 (спустя 18 часов)

[Q] 

Обновлено! +7,8,9.
[Профиль]  [ЛС] 

xaroszevs ®

Шкипер

108

Пост 21-Сен-2014 14:04 (спустя 1 день 4 часа)

[Q] 

Полный комплект.
[Профиль]  [ЛС] 

Пост 21-Сен-2014 18:24 (спустя 4 часа)

Топик был перенесен из форума Сериалы в эфире в форум Зарубежные сериалы
kugesan
 

Sanji Kock

Морской Волк

3

Пост 28-Сен-2014 11:54 (спустя 6 дней)

[Q] 

Не слишком страшен? Выглядит как любительское кино...

_________________
Называйте меня Mr.Fox. Лисы захватят этот прекрасный мир и сделают его одной большой норой....
[Профиль]  [ЛС] 
Показать сообщения:    
Ответить на тему

Текущее время: Сегодня 14:30

Часовой пояс: GMT + 4



Вы не можете начинать темы
Вы не можете отвечать на сообщения
Вы не можете редактировать свои сообщения
Вы не можете удалять свои сообщения
Вы не можете голосовать в опросах
Вы не можете прикреплять файлы к сообщениям
Вы не можете скачивать файлы

▼ Вниз