ML
     
  Уважаемый Гость!
Вы можете поддержать проект и зарегистрироваться у наших партнеров - онлайн-стратегия MyLands. При регистрации в игре Вы получите код, который сможете активировать после регистрации на pirat.ca и получить 1000 дублонов.

Ваш код:
5af7de75d3db09b6a37bc8bab71b0e87ccde73d6
 
     

Настоящий детектив / True Detective (Сезон 1 / полный / 8 серий) (Кэри Фукунага / Cary Fukunaga) [2014г., драма, криминал, ..., BDRip] MVO (Novamedia) + Original (Eng)

Ответить на тему
 
Автор
Сообщение

Пост 21-Сен-2014 21:32

[Q] 

kugesan

Настоящий детектив / True Detective
«Man is the cruelest animal»
- Русское название: Настоящий детектив
Оригинальное название: True Detective
Страна: США
Год выпуска: 2014
Жанр: драма, криминал, ...-Релиз:
Перевод: Многоголосый закадровый, профессиональный
Оригинальный аудиопоток: английский-Премьера (мир): 12 января 2014, ...
премьера (РФ): 13 января 2014
Релиз на DVD: 12 июня 2014, «CP Дистрибуция», ...-Режиссер: Кэри Фукунага / Cary Fukunaga
В главных ролях: Мэттью МакКонахи, Вуди Харрельсон, Мишель Монахэн, Майкл Поттс, Тори Киттлз, Брюс Эллиотт, Мэдисон Вульф, Рендал Гонсалес, Дэвид Стивен Митчелл, Эрик Прайс ...
Роли дублировали: Дмитрий Поляновский, Дмитрий Полонский, Рамиля Искандер-Описание фильма:
Главные герои — два детектива. В 2012 году в штате Луизиана повторно открывается дело о серийном убийстве в 1995 году. Детективы познакомились 17 лет назад, когда началось расследование, и с тех пор вместе охотились за киллером. Повествование будет вестись как в наше время, так и откатится назад, в середину девяностых.-Сезон: 1
Серии: 8 из 8 серий
Продолжительность: ~ 00:59:00 мин серия-
Качество видео: BDRip
Формат: AVI
Видеокодек: XviD
Аудиокодек: AC-3
Видео: MPEG-4 Visual at 2127 Кбит/сек: 720 x 400 (1.800) at 23.976 fps, 0.31 Бит/Пиксели
Аудио Rus: AC-3 at 384 Кбит/сек: 6 каналов, 48,0 КГц |Novamedia|
- -
-
  • Огромная яркая темнота (The Long Bright Dark)
  • Галлюцинации (Seeing Things)
  • Закрытая комната (The Locked Room)
  • Кто идёт (Who Goes There)
  • Тайный рок всей жизни (The Secret Fate of All Life )
  • Дома с привидениями (Haunted Houses)
  • После твоего ухода (After You've Gone)
  • Нечто и ничто (Form and Void)
-
- Шестиминутная сцена перестрелки в негритянском гетто в эпизоде «Who Goes There» была снята одним дублем.
- Съёмки первого сезона проходили на прибрежных равнинах юга Луизианы, где и разворачивается его сюжет.
- Детективы перемещаются на автомобиле 1995 Chevrolet Caprice — распространённый автомобиль сыщиков тех лет во многих штатах США.
- Садариас Харрелл набрал 21 килограмм для своей роли детектива Дрю.
- В начале восьмой серии по телевизору показывают фильм Альфреда Хичкока «На север через северо-запад» (1959).
- Во время показа финала первого сезона сериала, в связи с огромным количеством запросов, сервис потокового видео HBO Go не выдержал нагрузки и рухнул.
-
Общее
Полное имя : E:\РАЗДАЧА\Pirat.ca\Настоящий детектив - True Detective [S01] (2014) BDRip\1. The Long Bright Dark - Долгая яркая темнота.avi
Формат : AVI
Формат/Информация : Audio Video Interleave
Размер файла : 1,05 Гбайт
Продолжительность : 59 м.
Общий поток : 2520 Кбит/сек
Программа кодирования : VirtualDubMod 1.5.10.2 (build 2542/release)
Библиотека кодирования : VirtualDubMod build 2542/release
Видео
Идентификатор : 0
Формат : MPEG-4 Visual
Профиль формата : Advanced [email protected]
Параметр BVOP формата : 1
Параметр QPel формата : Нет
Параметр GMC формата : Без точки перехода
Параметр матрицы формата : Выборочная
Режим смешивания : Сжатый битовый поток
Идентификатор кодека : XVID
Идентификатор кодека/Подсказка : XviD
Продолжительность : 59 м.
Битрейт : 2127 Кбит/сек
Ширина : 720 пикселей
Высота : 400 пикселей
Соотношение сторон : 16:9
Частота кадров : 23,976 кадра/сек
Цветовое пространство : YUV
Субдискретизация насыщенности : 4:2:0
Битовая глубина : 8 бит
Тип развёртки : Прогрессивная
Метод сжатия : С потерями
Бит/(Пиксели*Кадры) : 0.308
Размер потока : 909 Мбайт (84%)
Библиотека кодирования : XviD 64
Аудио
Идентификатор : 1
Формат : AC-3
Формат/Информация : Audio Coding 3
Идентификатор кодека : 2000
Продолжительность : 59 м.
Вид битрейта : Постоянный
Битрейт : 384 Кбит/сек
Каналы : 6 каналов
Частота : 48,0 КГц
Метод сжатия : С потерями
Размер потока : 164 Мбайт (15%)
Выравнивание : Разделение по промежуткам
Продолжительность промежутка : 42 мс. (1,00 видеокадр)
Время предзагрузки промежутка : 500 мс.
Заголовок : True.Detective.S01E01.2014.Rus.MVO.AC3.5.1.384.kbps.Amedia
-
-Скриншоты:
-
-Добавлена восьмая, заключительная, серия первого сезона
Download / Скачать

Хотите скачать бесплатно? Зарегистрируйтесь на сайте (ссылка на регистрацию). Pirat.ca - самый быстрый торрент трекер в рунете!

Как скачивать  ·   Что такое торрент  ·   Рейтинг и ограничения



Последний раз редактировалось: kugesan (2015-02-12 12:14), всего редактировалось 1 раз

DAEDMAN

Флибустьер

Пост 12-Дек-2014 22:17 (спустя 2 месяца 21 день)

[Q] 

dj Пиратка рулит! Хорошо
[Профиль]  [ЛС] 

dr.archie80

Морской Волк

Пост 12-Дек-2014 22:23 (спустя 6 минут)

[Q] 

Отличный сериал! Автору респект!!!
[Профиль]  [ЛС] 

kugesan ®

56652

Пост 12-Дек-2014 22:48 (спустя 25 минут)

[Q] 

Приятного просмотра!!!

_________________

В мире две бесконечности: вселенная и человеческая глупость - Альберт Эйнштен
«Можно вытащить человека из грязи, но нельзя вытащить грязь из человека»!
[Профиль]  [ЛС] 

Пост 19-Дек-2014 12:07 (спустя 6 дней)

Топик был перенесен из форума Сериалы в эфире в форум Зарубежные сериалы
Андря
 

okorm

889

Пост 28-Дек-2014 06:45 (спустя 15 дней)

[Q] 

Сериал понравился. Вот только ощущение что должно было быть 10 серий. В последней серии слишком уж много событий). Раздающему респект!
[Профиль]  [ЛС] 

kugesan ®

56652

Пост 12-Фев-2015 12:21 (спустя 1 месяц 15 дней)

[Q] 

okorm, Это задел для второго сезона. Дата премьеры сериала пока не оглашается. Но уж точно в этом году)
Добавлено спустя 2 минуты 11 секунд:
К сожалению, я ухожу с раздачи, огромная просьба, держите сериал как можно дольше, он того достоин)

_________________

В мире две бесконечности: вселенная и человеческая глупость - Альберт Эйнштен
«Можно вытащить человека из грязи, но нельзя вытащить грязь из человека»!
[Профиль]  [ЛС] 

syava86

Лоцман

Пост 31-Мар-2015 01:34 (спустя 1 месяц 18 дней)

[Q] 

Спасибо ОГРОМНОЕ!!!!!
[Профиль]  [ЛС] 

kugesan ®

56652

Пост 31-Мар-2015 09:31 (спустя 7 часов)

[Q] 

Приятного просмотра!!!

_________________

В мире две бесконечности: вселенная и человеческая глупость - Альберт Эйнштен
«Можно вытащить человека из грязи, но нельзя вытащить грязь из человека»!
[Профиль]  [ЛС] 
Показать сообщения:    
Ответить на тему

Текущее время: Сегодня 14:12

Часовой пояс: GMT + 4



Вы не можете начинать темы
Вы не можете отвечать на сообщения
Вы не можете редактировать свои сообщения
Вы не можете удалять свои сообщения
Вы не можете голосовать в опросах
Вы не можете прикреплять файлы к сообщениям
Вы не можете скачивать файлы

▼ Вниз