ML
     
  Уважаемый Гость!
Вы можете поддержать проект и зарегистрироваться у наших партнеров - онлайн-стратегия MyLands. При регистрации в игре Вы получите код, который сможете активировать после регистрации на pirat.ca и получить 1000 дублонов.

Ваш код:
822959f93c00d34653763d5bbf9ee9a7134af98a
 
     

Разделение / The Divide / Сезон: 1 / Серии: 1-8 из 8 (Тони Голдуин/Tony Goldwyn, Эллисон Андерс/Allison Anders) [2014 г., Драма, триллер, HDTVRip] VO (xaros) + Original (Eng)

Ответить на тему
 
Автор
Сообщение

Пост 25-Сен-2014 15:18

[Q] 

xaroszevs

Шкипер

-Разделение / The Divide-- Производство: США, AMC Studios
Жанр: Драма, триллер
Год выпуска: 2014 г.
Продолжительность: 1 x ~01:23:30, 6 х ~ 00:43:30
Перевод: Любительский (одноголосый, закадровый) [xaros]
Оригинальный аудиопоток: английский
Режиссер: Тони Голдуин/Tony Goldwyn, Эллисон Андерс/Allison Anders-В ролях: Дэймон Гаптон, Марин Айрлэнд, Джо Андерсон, Пол Шнайдер, Ниа Лонг, Кларк Питерс, Жан Максвелл, Бритни Олдфорд, Адам Ротенберг, Джамил Френч-Описание: В центре сюжета находится социальный работник Кристин Роуз и окружной прокурор Адам Пейдж, которые сталкиваются взглядами на правовую систему. Прочувствовать мораль, амбиции, этики, политики и гонки в современной системе правосудия, глазами самоотверженного социального работника и столь же рьяного окружного прокурора, чьи взгляды различаются.-
Качество видео: HDTVRip
Контейнер: AVI
Видео кодек: XviD
Аудио кодек: MP3
Видео: 640x360 (16:9), ~ 1600 kbps, 23.976 fps, 0.25 Bits/Pixel
Аудио(RUS): 128.00 kbps, 2 ch, 48 KHz [xaros]
Аудио(ENG): 128.00 kbps, 2 ch, 48 KHz
01. The Ways Men Divide - Мнения людей расходятся
02. No Such Thing as Justice - Справедливости не существует
03. Facts Are The Enemy - Факты - враги.
04. Never Forget - Никогда не забывайте.
05. I'm For Justice - Я за справедливость.
06. And the Little Ones Get Caught - И ловятся одни маленькие
07. I Can't Go Back - Я не могу вернуться.
08. To Whom Evil Is Done - Кому сделали зло.
General
Complete name : B:\Сериалы, шоу\The.Divide.S01.HDTVRip.xaros\The.Divide.S01E03.HDTVRip.xaros.avi
Format : AVI
Format/Info : Audio Video Interleave
File size : 500 MiB
Duration : 42mn 24s
Overall bit rate mode : Variable
Overall bit rate : 1 650 Kbps
Writing application : VirtualDubMod 1.5.10.2 (build 2540/release)
Writing library : VirtualDubMod build 2540/release
Video
ID : 0
Format : MPEG-4 Visual
Format profile : Advanced [email protected]
Format settings, BVOP : 2
Format settings, QPel : No
Format settings, GMC : No warppoints
Format settings, Matrix : Default (H.263)
Muxing mode : Packed bitstream
Codec ID : XVID
Codec ID/Hint : XviD
Duration : 42mn 24s
Bit rate : 1 380 Kbps
Width : 640 pixels
Height : 360 pixels
Display aspect ratio : 16:9
Frame rate : 23.976 fps
Color space : YUV
Chroma subsampling : 4:2:0
Bit depth : 8 bits
Scan type : Progressive
Compression mode : Lossy
Bits/(Pixel*Frame) : 0.250
Stream size : 418 MiB (84%)
Writing library : XviD 64
Audio #1
ID : 1
Format : MPEG Audio
Format version : Version 1
Format profile : Layer 3
Mode : Joint stereo
Mode extension : MS Stereo
Codec ID : 55
Codec ID/Hint : MP3
Duration : 42mn 24s
Bit rate mode : Constant
Bit rate : 128 Kbps
Channel(s) : 2 channels
Sampling rate : 48.0 KHz
Compression mode : Lossy
Stream size : 38.8 MiB (8%)
Alignment : Aligned on interleaves
Interleave, duration : 42 ms (1.00 video frame)
Interleave, preload duration : 504 ms
Audio #2
ID : 2
Format : MPEG Audio
Format version : Version 1
Format profile : Layer 3
Mode : Joint stereo
Mode extension : MS Stereo
Codec ID : 55
Codec ID/Hint : MP3
Duration : 42mn 24s
Bit rate mode : Variable
Bit rate : 128 Kbps
Channel(s) : 2 channels
Sampling rate : 48.0 KHz
Compression mode : Lossy
Stream size : 38.8 MiB (8%)
Alignment : Split accross interleaves
Interleave, duration : 42 ms (1.00 video frame)
Interleave, preload duration : 500 ms
Download / Скачать

Хотите скачать бесплатно? Зарегистрируйтесь на сайте (ссылка на регистрацию). Pirat.ca - самый быстрый торрент трекер в рунете!

Как скачивать  ·   Что такое торрент  ·   Рейтинг и ограничения



Последний раз редактировалось: xaroszevs (2014-10-25 17:42), всего редактировалось 10 раз(а)

Пост 25-Сен-2014 18:13 (спустя 2 часа 55 минут)

Топик был перенесен из форума Зарубежные сериалы (Трюм) в форум Сериалы в эфире
kugesan
 

xaroszevs ®

Шкипер

108

Пост 04-Окт-2014 05:14 (спустя 8 дней)

[Q] 

+ 3 серия. первый файл обновлён, перекодирован.
[Профиль]  [ЛС] 

xaroszevs ®

Шкипер

108

Пост 06-Окт-2014 13:19 (спустя 2 дня 8 часов)

[Q] 

Обновлено. + 4 серия.
[Профиль]  [ЛС] 

xaroszevs ®

Шкипер

108

Пост 10-Окт-2014 16:04 (спустя 4 дня)

[Q] 

Обновлено. + 5 серия.
[Профиль]  [ЛС] 

xaroszevs ®

Шкипер

108

Пост 12-Окт-2014 14:47 (спустя 1 день 22 часа)

[Q] 

Обновлено. + 6 серия.
[Профиль]  [ЛС] 

xaroszevs ®

Шкипер

108

Пост 17-Окт-2014 17:15 (спустя 5 дней)

[Q] 

Обновлено. + 7 серия.
[Профиль]  [ЛС] 

xaroszevs ®

Шкипер

108

Пост 25-Окт-2014 17:43 (спустя 8 дней)

[Q] 

Финал. Полный комплект.
[Профиль]  [ЛС] 

Пост 25-Окт-2014 23:02 (спустя 5 часов)

Топик был перенесен из форума Сериалы в эфире в форум Зарубежные сериалы
kugesan
 
Показать сообщения:    
Ответить на тему

Текущее время: Сегодня 05:59

Часовой пояс: GMT + 4



Вы не можете начинать темы
Вы не можете отвечать на сообщения
Вы не можете редактировать свои сообщения
Вы не можете удалять свои сообщения
Вы не можете голосовать в опросах
Вы не можете прикреплять файлы к сообщениям
Вы не можете скачивать файлы

▼ Вниз