ML
     
  Уважаемый Гость!
Вы можете поддержать проект и зарегистрироваться у наших партнеров - онлайн-стратегия MyLands. При регистрации в игре Вы получите код, который сможете активировать после регистрации на pirat.ca и получить 1000 дублонов.

Ваш код:
34514219cfad5497a1822ecc1269bea77988f9aa
 
     

Во все тяжкие / Breaking Bad / Сезон: 5 / Серии: 1-16 (16) (Адам Бернштейн / Adam Bernstein) [2012-2013 гг., криминал, драма, триллер, BDRip, 1080p] MVO (LostFilm) + Original (Eng) + Sub (Rus, Eng)

Ответить на тему
 
Автор
Сообщение

Пост 26-Сен-2014 11:13

[Q] 

TERMOS

Легенда

-Во все тяжкие / Breaking Bad
(5 сезон)
-- Производство: США
Жанр: криминал, драма, триллер
Год выпуска: 2012-2013 гг.
Продолжительность: 16х ~00:48:00
Мировая премьера: 15 июля 2012
Российская премьера: 18 июля 2012
Перевод: Профессиональный (многоголосый, закадровый) [LostFilm]
Оригинальный аудиопоток: английский
Режиссер: Адам Бернштейн / Adam Bernstein-В ролях: Брайан Крэнстон, Анна Ганн, Аарон Пол, Дин Норрис, Бетси Брандт, Эр Джей, Стивен Майкл Квезада, Джанкарло Эспосито, Боб Оденкирк, Джонатан Бэнкс...-Описание: Уолтер Уайт стал торговцем наркотиками по стечению обстоятельств. Его сын инвалид, жена была беременна вторым ребенком, а денег скромному преподавателю химии в школе катастрофически не хватало. Подработка на автомойке давала совсем немного денег, зато забирала много сил у уже немолодого человека. Однажды он узнал, что его бывший ученик торгует наркотиками, и предложил тому заняться продажей метамфетамина. Для его производства у химика есть все необходимые знания, и теперь на улицах Альбукерке, штат Нью-Мексико можно купить метамфетамин, изготовляемый в трейлере где то далеко в пустыне от города, который к тому же родственник сотрудника отдела полиции по борьбе с наркотиками. Это и позволяет Уолтеру быть в курсе планов полиции по выявлению и задержанию действующих в городе наркодилеров.
- -Качество видео: BDRip
Контейнер: MKV
Стандарт разрешения: 1080p
Видео кодек: H.264/AVC
Аудио кодек: DTS
Видео: 1920x1080, 23.976 fps, ~13,0 Mbps avg
Аудио: Russian: 48 kHz/24-bit, DTS 5.1, ~1509.00 kbps avg |Многоголосый закадровый,Lostfilm|
Аудио #2: English: 48 kHz/24-bit, DTS 5.1, ~1509.00 kbps avg
Cубтитры: Russian (Forced, Full), English
Аудиодорожка 1 получена путем извлечения ядра DTS-HD MA из ремуксов hdclub.
Субтитры форсированные на надписи и полные от lostrator.
Episode 1: Live Free or Die / Живи Свободным или Умри
Episode 2: Madrigal / Мадригал
Episode 3: Hazard Pay / Опасные Условия
Episode 4: Fifty-One / 51
Episode 5: Dead Freight / Недогруз
Episode 6: Buyout / Выкуп
Episode 7: Everybody Wins / Побеждают Все
Episode 8: Gliding Over All / Паря Над Всем
Episode 9: Blood Money / Кровавые Деньги
Episode 10: Buried / Зарытое
Episode 11: Confessions / Признания
Episode 12: Rapid Dog / Бешеный Пёс
Episode 13: To'hajiilee / Тохаджили
Episode 14: Ozymandias / Озимандий
Episode 15: Granite State / Гранитный Штат
Episode 16: Felina / Фелина
Код:
General
Complete name                    : T:\Uploads\Pirat.Ca\Breaking Bad - Season 5 (2012)[BDRip.1080p]\Breaking.Bad.S05E01.1080p.BluRay.mkv
Format                           : Matroska
File size                        : 5.11 GiB
Duration                         : 43mn 28s
Overall bit rate                 : 16.8 Mbps
Encoded date                     : UTC 2014-09-25 18:13:08
Writing application              : mkvmerge v6.0.0 ('Coming Up For Air') built on Jan 20 2013 09:52:00
Writing library                  : libebml v1.3.0 + libmatroska v1.4.0
Video
ID                               : 1
Format                           : AVC
Format/Info                      : Advanced Video Codec
Format profile                   : [email protected]
Format settings, CABAC           : Yes
Format settings, ReFrames        : 4 frames
Muxing mode                      : Container [email protected]
Codec ID                         : V_MPEG4/ISO/AVC
Duration                         : 43mn 28s
Bit rate                         : 13.5 Mbps
Width                            : 1 920 pixels
Height                           : 1 080 pixels
Display aspect ratio             : 16:9
Frame rate                       : 23.976 fps
Color space                      : YUV
Chroma subsampling               : 4:2:0
Bit depth                        : 8 bits
Scan type                        : Progressive
Bits/(Pixel*Frame)               : 0.271
Stream size                      : 4.09 GiB (80%)
Writing library                  : x264 core 130 r2273 b3065e6
Encoding settings                : cabac=1 / ref=4 / deblock=1:-3:-3 / analyse=0x3:0x113 / me=umh / subme=10 / psy=1 / psy_rd=1.06:0.09 / mixed_ref=1 / me_range=32 / chroma_me=1 / trellis=2 / 8x8dct=1 / cqm=0 / deadzone=21,11 / fast_pskip=0 / chroma_qp_offset=-3 / threads=6 / lookahead_threads=1 / sliced_threads=0 / nr=0 / decimate=0 / interlaced=0 / bluray_compat=0 / constrained_intra=0 / bframes=8 / b_pyramid=2 / b_adapt=2 / b_bias=0 / direct=3 / weightb=1 / open_gop=0 / weightp=2 / keyint=240 / keyint_min=22 / scenecut=40 / intra_refresh=0 / rc_lookahead=175 / rc=crf / mbtree=1 / crf=17.5 / qcomp=0.80 / qpmin=0 / qpmax=69 / qpstep=4 / vbv_maxrate=50000 / vbv_bufsize=50000 / crf_max=0.0 / nal_hrd=none / ip_ratio=1.20 / aq=1:0.66
Language                         : English
Audio #1
ID                               : 2
Format                           : DTS
Format/Info                      : Digital Theater Systems
Codec ID                         : A_DTS
Duration                         : 43mn 28s
Bit rate mode                    : Constant
Bit rate                         : 1 510 Kbps
Channel(s)                       : 6 channels
Channel positions                : Front: L C R, Side: L R, LFE
Sampling rate                    : 48.0 KHz
Bit depth                        : 24 bits
Stream size                      : 469 MiB (9%)
Title                            : Lostfilm [DTS 6ch 1509 kbps]
Language                         : Russian
Audio #2
ID                               : 3
Format                           : DTS
Format/Info                      : Digital Theater Systems
Codec ID                         : A_DTS
Duration                         : 43mn 28s
Bit rate mode                    : Constant
Bit rate                         : 1 510 Kbps
Channel(s)                       : 6 channels
Channel positions                : Front: L C R, Side: L R, LFE
Sampling rate                    : 48.0 KHz
Bit depth                        : 24 bits
Stream size                      : 469 MiB (9%)
Title                            : Оригинал [DTS 6ch 1509 kbps]
Language                         : English
Text #1
ID                               : 4
Format                           : ASS
Codec ID                         : S_TEXT/ASS
Codec ID/Info                    : Advanced Sub Station Alpha
Title                            : Forced
Language                         : Russian
Text #2
ID                               : 5
Format                           : ASS
Codec ID                         : S_TEXT/ASS
Codec ID/Info                    : Advanced Sub Station Alpha
Title                            : Full
Language                         : Russian
Text #3
ID                               : 6
Format                           : ASS
Codec ID                         : S_TEXT/ASS
Codec ID/Info                    : Advanced Sub Station Alpha
Title                            : English
Language                         : English
Menu
00:00:00.000                     : en:00:00:00.000
00:04:40.113                     : en:00:04:40.113
00:17:17.036                     : en:00:17:17.036
00:24:54.702                     : en:00:24:54.702
00:36:29.020                     : en:00:36:29.020
00:42:20.079                     : en:00:42:20.079
Download / Скачать

Хотите скачать бесплатно? Зарегистрируйтесь на сайте (ссылка на регистрацию). Pirat.ca - самый быстрый торрент трекер в рунете!

Как скачивать  ·   Что такое торрент  ·   Рейтинг и ограничения

Пост 26-Сен-2014 11:24 (спустя 10 минут)

Топик был перенесен из форума Зарубежные сериалы (Трюм) в форум Зарубежные сериалы
kugesan
 

cimi

Пост 28-Сен-2014 00:01 (спустя 1 день 12 часов)

[Q] 

Теперь полный сериал в коллекции. Лови бочку
Спасибо!!!

_________________
[Профиль]  [ЛС] 

TERMOS ®

Легенда

11993

Пост 28-Сен-2014 20:03 (спустя 20 часов)

[Q] 

cimi, Ты так считаешь? ap А если я ВСЕ сезоны выложу в качестве BDRip, 1080p? Ну как эта. ad

_________________
[Профиль]  [ЛС] 

cimi

Пост 04-Окт-2014 01:16 (спустя 5 дней)

[Q] 

TERMOS, ок я только этого и жду! Прости, что не сразу ответил, я в отпуске отмокаю

_________________
[Профиль]  [ЛС] 

TERMOS ®

Легенда

11993

Пост 04-Окт-2014 10:41 (спустя 9 часов)

[Q] 

cimi, серьёзно?! Пока отмокаешь, на хардах место готовь. ag Сегодня будет первый сезон! al

_________________
[Профиль]  [ЛС] 

tanakasan.rus

Штурман

Пост 03-Ноя-2014 13:55 (спустя 30 дней)

[Q] 

Спасибо за Шедевр! Ждал в качестве =) Всем качать!!! Вы лучшие!

_________________
Просто будь немного добрее, мой дорогой пират :)
[Профиль]  [ЛС] 

The-PRinz:3

Шкипер

Пост 24-Янв-2015 11:28 (спустя 2 месяца 20 дней)

[Q] 

Раздайте пожалуйста вообще голяк ((

_________________
[Профиль]  [ЛС] 

TERMOS ®

Легенда

11993

Пост 28-Янв-2015 00:09 (спустя 3 дня)

[Q] 

The-PRinz:3, да ладно)) Всего 2 дня комп был выключен.

_________________
[Профиль]  [ЛС] 

geforester

Юнга

Пост 12-Май-2015 17:10 (спустя 3 месяца 15 дней)

[Q] 

Ребятки, встаньте, пожалуйста на раздачу. С ночи скорость упала до 0 :(
[Профиль]  [ЛС] 
Показать сообщения:    
Ответить на тему

Текущее время: Сегодня 07:56

Часовой пояс: GMT + 4



Вы не можете начинать темы
Вы не можете отвечать на сообщения
Вы не можете редактировать свои сообщения
Вы не можете удалять свои сообщения
Вы не можете голосовать в опросах
Вы не можете прикреплять файлы к сообщениям
Вы не можете скачивать файлы

▼ Вниз