Уважаемый Гость!
Вы можете поддержать проект и зарегистрироваться у наших партнеров - онлайн-стратегия MyLands. При регистрации в игре Вы получите код, который сможете активировать после регистрации на pirat.ca и получить 1000 дублонов.

Ваш код:
88b064dc25b781f6ff6aa29f2910f281edc3436e
 
     

Острые козырьки / Заточенные кепки / Peaky Blinders / Сезон 2 / Серии: 1-6 из 6 (Колм МакКарти / Colm McCarthy) [2014 г., драма, криминал, BDRip] MVO (LostFilm, AlexFilm) + DVO (Кубик в кубе) + Original + Subs (Rus, Eng)

Ответить на тему
 
Автор
Сообщение

Пост 05-Окт-2014 22:39

[Q] 

kugesan

Острые козырьки / Заточенные кепки / Peaky Blinders - Страна: Великобритания
Год выпуска: 2014
Жанр: драма, криминал
Продолжительность: ~ 00:58:00 серия-Перевод:
- Многоголосый закадровый, профессиональный (LostFilm)
- Многоголосый закадровый, профессиональный (AlexFilm)
- Двухголосый закадровый, профессиональный (Кубик в кубе)-Режиссер: Колм МакКарти / Colm McCarthy, Отто Баферст / Otto Bathurst, Том Харпер / Tom Harper
Актеры: Киллиан Мёрфи, Сэм Нил, Хелен МакКрори, Аннабелль Уоллис, Иддо Голдберг, Пол Андерсон, Софи Рандл, Джо Коул, Чарли Крид-Майлз, Сэмюэл Эдвард-Кук, ...-Описание фильма:
Британский сериал о криминальном мире Бирмингема 20-х годов прошлого века, в котором многолюдная семья Шелби стала одной из самых жестоких и влиятельных гангстерских банд послевоенного времени. Фирменным знаком группировки, промышлявшей грабежами и азартными играми, стали зашитые в козырьки лезвия.-Премьера (мир): 12 сентября 2013
Премьера (РФ) 25 октября 2016-Качество видео: BDRip
Контейнер: AVI
Видео кодек: XviD
Аудио кодек: AC-3
Видео: 704 x 384, 25 fps, ~1500 kbps, 0.22 bit/pixel
Аудио Rus: AC-3 , 48 kHz, 2 ch, 384 kbps |LostFilm|
Аудио Rus: AC-3 , 48 kHz, 2 ch, 192 kbps |AlexFilm|
Аудио Rus: AC-3 , 48 kHz, 2 ch, 192 kbps |Кубик в кубе|
Аудио Eng: AC-3 , 48 kHz, 2 ch, 384 kbps |Original|
Cубтитры: русские, английские
- -Сериал "Острые козырьки / Заточенные кепки" на треке Pirat.ca-
Код:
Общее
Полное имя                               : E:\_Сериалы\_Сериалы\Острые козырьки\Peaky.Blinders.s02.BDRip.Rus.Eng\Peaky.Blinders.s02e01.BDRip.Rus.Eng.avi
Формат                                   : AVI
Формат/Информация                        : Audio Video Interleave
Размер файла                             : 1,10 Гбайт
Продолжительность                        : 58 м. 55 с.
Общий поток                              : 2676 Кбит/сек
Программа кодирования                    : VirtualDubMod 1.5.10.3 | www.virtualdub-fr.org || (build 2550/release)
Библиотека кодирования                   : VirtualDubMod build 2550/release
Видео
Идентификатор                            : 0
Формат                                   : MPEG-4 Visual
Профиль формата                          : Advanced [email protected]
Настройки формата                        : BVOP1
Параметр BVOP формата                    : 1
Параметр QPel формата                    : Нет
Параметр GMC формата                     : Без точки перехода
Параметр матрицы формата                 : Default (MPEG)
Идентификатор кодека                     : XVID
Идентификатор кодека/Подсказка           : XviD
Продолжительность                        : 58 м. 55 с.
Битрейт                                  : 1501 Кбит/сек
Ширина                                   : 704 пикселя
Высота                                   : 384 пикселя
Соотношение сторон                       : 1,85:1
Частота кадров                           : 25,000 кадров/сек
Цветовое пространство                    : YUV
Субдискретизация насыщенности            : 4:2:0
Битовая глубина                          : 8 бит
Тип развёртки                            : Прогрессивная
Метод сжатия                             : С потерями
Бит/(Пиксели*Кадры)                      : 0.222
Размер потока                            : 632 Мбайт (56%)
Библиотека кодирования                   : XviD 1.2.1 (UTC 2008-12-04)
Аудио #1
Идентификатор                            : 1
Формат                                   : AC-3
Формат/Информация                        : Audio Coding 3
Идентификатор кодека                     : 2000
Продолжительность                        : 58 м. 52 с.
Вид битрейта                             : Постоянный
Битрейт                                  : 384 Кбит/сек
Каналы                                   : 2 канала
Расположение каналов                     : Front: L R
Частота                                  : 48,0 КГц
Частота кадров                           : 31,250 кадров/сек (1536 SPF)
Битовая глубина                          : 16 бит
Метод сжатия                             : С потерями
Размер потока                            : 162 Мбайт (14%)
Выравнивание                             : Разделение по промежуткам
Продолжительность промежутка             : 40  мс. (1,00 видеокадр)
Время предзагрузки промежутка            : 500  мс.
ServiceKind/String                       : Complete Main
Аудио #2
Идентификатор                            : 2
Формат                                   : AC-3
Формат/Информация                        : Audio Coding 3
Идентификатор кодека                     : 2000
Продолжительность                        : 58 м. 47 с.
Вид битрейта                             : Постоянный
Битрейт                                  : 192 Кбит/сек
Каналы                                   : 2 канала
Расположение каналов                     : Front: L R
Частота                                  : 48,0 КГц
Частота кадров                           : 31,250 кадров/сек (1536 SPF)
Битовая глубина                          : 16 бит
Метод сжатия                             : С потерями
Размер потока                            : 80,7 Мбайт (7%)
Выравнивание                             : Разделение по промежуткам
Продолжительность промежутка             : 40  мс. (1,00 видеокадр)
Время предзагрузки промежутка            : 500  мс.
ServiceKind/String                       : Complete Main
Аудио #3
Идентификатор                            : 3
Формат                                   : AC-3
Формат/Информация                        : Audio Coding 3
Идентификатор кодека                     : 2000
Продолжительность                        : 58 м. 52 с.
Вид битрейта                             : Постоянный
Битрейт                                  : 192 Кбит/сек
Каналы                                   : 2 канала
Расположение каналов                     : Front: L R
Частота                                  : 48,0 КГц
Частота кадров                           : 31,250 кадров/сек (1536 SPF)
Битовая глубина                          : 16 бит
Метод сжатия                             : С потерями
Размер потока                            : 80,9 Мбайт (7%)
Выравнивание                             : Разделение по промежуткам
Продолжительность промежутка             : 40  мс. (1,00 видеокадр)
Время предзагрузки промежутка            : 500  мс.
ServiceKind/String                       : Complete Main
Аудио #4
Идентификатор                            : 4
Формат                                   : AC-3
Формат/Информация                        : Audio Coding 3
Идентификатор кодека                     : 2000
Продолжительность                        : 58 м. 55 с.
Вид битрейта                             : Постоянный
Битрейт                                  : 384 Кбит/сек
Каналы                                   : 2 канала
Расположение каналов                     : Front: L R
Частота                                  : 48,0 КГц
Частота кадров                           : 31,250 кадров/сек (1536 SPF)
Битовая глубина                          : 16 бит
Метод сжатия                             : С потерями
Размер потока                            : 162 Мбайт (14%)
Выравнивание                             : Разделение по промежуткам
Продолжительность промежутка             : 40  мс. (1,00 видеокадр)
Время предзагрузки промежутка            : 500  мс.
ServiceKind/String                       : Complete Main
-Скриншоты:
--
Раздача ведётся путём добавления новых серий; при каждом добавлении создаётся новый торрент.
Чтобы начать докачку новой серии, пользователям необходимо сделать следующее:
1. остановить скачивание,
2. удалить старый торрент у себя из клиента (старые серии удалять не надо),
3. скачать новый торрент и запустить его у себя в клиенте вместо старого, при этом указать клиенту путь в старую папку, куда и должно происходить скачивание новых серий.
Ваш клиент при этом должен произвести хеширование (проверку) старой папки (если не производит сам - помогите ему сделать это), и будет докачивать только те серии которых у вас ещё нет. Старые серии при этом не удаляются, а продолжают раздаваться!
Eсли вы уже удалили старые серии, то предотвратить повторную закачку старых серий можно, отжав галочку в соответствующих местах при запуске нового торрента. По возможности, желательно не удалять старые серии как можно дольше, чтобы релизёр не столько продолжал раздавать старые серии, а смог сконцентрироваться на новых.
Совет для тех, кто не хочет ждать перехеширования:
Создайте ещё одну папку рядом с папкой сериала (рядом, а не в ней!!!). Каждую новую серию после удачной загрузки копируйте в новую папку так чтобы ваша основная папка всегда была пуста. Когда ваш новый торрент предложит вам закачать все файлы, выберете только последнюю. Для сидирования же укажите адрес новой папки.
Как закачать отдельный файл из торрента или докачать ранее пропущенные файлы торрента!
-
1. Открыть торрент
2. Снять галки с тех файлов торрента, которые мы не хотим закачивать. Оставляем только на нужных нам файлах (файле).
3. Нажать О.К.
В клиенте utorrent
Инструкция
1) Открыть торрент

2) Снять галки с тех файлов торрента, которые мы не хотим закачивать:
* либо вручную, снимая с каждого файла галку( скрин №1)
* либо, нажав кнопку "Снять метки (Select None)", сняв сразу со всех файлов(скрин №2)
№1

№2

Оставляем только на нужных нам файлах (файле).

3)Нажать О.К
-Приятного просмотра!!!-
Download / Скачать

Хотите скачать бесплатно? Зарегистрируйтесь на сайте (ссылка на регистрацию). Pirat.ca - самый быстрый торрент трекер в рунете!

Как скачивать  ·   Что такое торрент  ·   Рейтинг и ограничения



Последний раз редактировалось: kugesan (2018-01-22 11:28), всего редактировалось 9 раз(а)

крутель

Лоцман

Пост 05-Окт-2014 22:51 (спустя 11 минут)

[Q] 

Спасибо! Поддай скорости))
[Профиль]  [ЛС] 

Пост 05-Окт-2014 23:22 (спустя 30 минут)

Топик был перенесен из форума Зарубежные сериалы (Трюм) в форум Сериалы в эфире
TERMOS
 

fatal1ty110

Шкипер

Пост 20-Окт-2014 17:01 (спустя 14 дней)

[Q] 

чет 1ый сезон не найду на пиратке
[Профиль]  [ЛС] 

kugesan ®

62448

Пост 20-Окт-2014 17:38 (спустя 36 минут)

[Q] 

fatal1ty110,Сериал "Острые козырьки / Заточенные кепки" на треке Pirat.ca

_________________
В мире две бесконечности: вселенная и человеческая глупость - Альберт Эйнштен
«Можно вытащить человека из грязи, но нельзя вытащить грязь из человека»!
[Профиль]  [ЛС] 

eevgenu45

Морской Волк

Пост 11-Ноя-2014 10:16 (спустя 21 день)

[Q] 

Сериал зачетный, поддержу оба сезона!!!!
Когесан, как обычно на высоте, спасибо, бочка в трюме)
[Профиль]  [ЛС] 

kugesan ®

62448

Пост 12-Ноя-2014 21:52 (спустя 1 день 11 часов)

[Q] 

Добавлена шестая, заключительная, серия второго сезона

_________________
В мире две бесконечности: вселенная и человеческая глупость - Альберт Эйнштен
«Можно вытащить человека из грязи, но нельзя вытащить грязь из человека»!
[Профиль]  [ЛС] 

Пост 13-Ноя-2014 00:23 (спустя 2 часа 30 минут)

Топик был перенесен из форума Сериалы в эфире в форум Зарубежные сериалы
Андря
 

Yrets

Флибустьер

162

Пост 12-Ноя-2016 16:20 (спустя 1 год 11 месяцев)

[Q] 

Забираю. Спасибо.
[Профиль]  [ЛС] 
Показать сообщения:    
Ответить на тему

Текущее время: Сегодня 11:19

Часовой пояс: GMT + 4



Вы не можете начинать темы
Вы не можете отвечать на сообщения
Вы не можете редактировать свои сообщения
Вы не можете удалять свои сообщения
Вы не можете голосовать в опросах
Вы не можете прикреплять файлы к сообщениям
Вы не можете скачивать файлы

▼ Вниз