ML
     
  Уважаемый Гость!
Вы можете поддержать проект и зарегистрироваться у наших партнеров - онлайн-стратегия MyLands. При регистрации в игре Вы получите код, который сможете активировать после регистрации на pirat.ca и получить 1000 дублонов.

Ваш код:
a978488e62322cd72e113ab723b8a7fdc10eb9b9
 
     

Острые козырьки / Заточенные кепки / Peaky Blinders (Сезон 2 / Полный / Серии: 6 из 6) (Колм МакКарти / Colm McCarthy, ...) [2014 г., Драма, HDTVRip] MVO [LostFilm]

Ответить на тему
 
Автор
Сообщение

Пост 05-Окт-2014 22:39

[Q] 

kugesan

Острые козырьки / Заточенные кепки / Peaky Blinders - Русское название: Заточенные кепки
Оригинальное название: Peaky Blinders
Страна: Великобритания
Год выпуска: 2014
Жанр: Драма-Озвучка: Студия
Перевод: Многоголосый закадровый, профессиональный-Режиссер: Колм МакКарти / Colm McCarthy, Отто Баферст / Otto Bathurst, Том Харпер / Tom Harper
Актеры: Киллиан Мёрфи, Сэм Нил, Хелен МакКрори, Аннабелль Уоллис, Иддо Голдберг, Пол Андерсон, Софи Рандл, Джо Коул, Чарли Крид-Майлз, Сэмюэл Эдвард-Кук, ...-Описание фильма:
Британский сериал о криминальном мире Бирмингема 20-х годов прошлого века, в котором многолюдная семья Шелби стала одной из самых жестоких и влиятельных гангстерских банд послевоенного времени. Фирменным знаком группировки, промышлявшей грабежами и азартными играми, стали зашитые в козырьки лезвия.-Дата мировой премьеры: 12 сентября 2013-Сезон: 2
Серии: 6 из 6 серий
Продолжительность: ~ 00:58:00 серия-Качество видео: HDTVRip
Контейнер: AVI
Видео кодек: XviD
Аудио кодек: MP3
Видео: MPEG-4 Visual at 925 Кбит/сек: 720 x 400 (1.800) at 25.000 fps, 0.13 Бит/Пиксели
Аудио Rus: MPEG Audio at 192 Кбит/сек: 2 канала, 48,0 КГц |LostFilm|
Cубтитры: отсутствуют
- -Сериал "Острые козырьки / Заточенные кепки" на треке Pirat.ca-
Код:
Общее
Полное имя                               : E:\_Сериалы\_Сериалы\Острые козырьки\Peaky.Blinders.S02.LostFilm\Peaky.Blinders.S02E01.rus.LostFilm.TV.avi
Формат                                   : AVI
Формат/Информация                        : Audio Video Interleave
Размер файла                             : 474 Мбайт
Продолжительность                        : 59 м.
Режим общего битрейта                    : Переменный
Общий поток                              : 1124 Кбит/сек
Программа кодирования                    : Nandub v1.0rc2
Библиотека кодирования                   : Nandub build 1853/release
Видео
Идентификатор                            : 0
Формат                                   : MPEG-4 Visual
Профиль формата                          : Advanced [email protected]
Параметр BVOP формата                    : Нет
Параметр QPel формата                    : Нет
Параметр GMC формата                     : Без точки перехода
Параметр матрицы формата                 : Default (H.263)
Идентификатор кодека                     : XVID
Идентификатор кодека/Подсказка           : XviD
Продолжительность                        : 59 м.
Битрейт                                  : 925 Кбит/сек
Ширина                                   : 720 пикселей
Высота                                   : 400 пикселей
Соотношение сторон                       : 16:9
Частота кадров                           : 25,000 кадров/сек
Цветовое пространство                    : YUV
Субдискретизация насыщенности            : 4:2:0
Битовая глубина                          : 8 бит
Тип развёртки                            : Прогрессивная
Метод сжатия                             : С потерями
Бит/(Пиксели*Кадры)                      : 0.128
Размер потока                            : 390 Мбайт (82%)
Библиотека кодирования                   : XviD 1.2.1 (UTC 2008-12-04)
Аудио
Идентификатор                            : 1
Формат                                   : MPEG Audio
Версия формата                           : Version 1
Профиль формата                          : Layer 3
Режим                                    : Joint stereo
Расширение режима                        : MS Stereo
Идентификатор кодека                     : 55
Идентификатор кодека/Подсказка           : MP3
Продолжительность                        : 59 м.
Вид битрейта                             : Переменный
Битрейт                                  : 192 Кбит/сек
Каналы                                   : 2 канала
Частота                                  : 48,0 КГц
Метод сжатия                             : С потерями
Размер потока                            : 78,9 Мбайт (17%)
Выравнивание                             : Соединение по промежуткам
Продолжительность промежутка             : 24  мс. (0,60 видеокадр)
Время предзагрузки промежутка            : 489  мс.
Библиотека кодирования                   : LAME3.97b
Настройки программы                      : -m j -V 4 -q 3 -lowpass 18.6 --abr 192
-
-Скриншоты:
-
-
-
1. Открыть торрент
2. Снять галки с тех файлов торрента, которые мы не хотим закачивать. Оставляем только на нужных нам файлах (файле).
3. Нажать О.К.
В клиенте utorrent
Инструкция
1) Открыть торрент

2) Снять галки с тех файлов торрента, которые мы не хотим закачивать:
* либо вручную, снимая с каждого файла галку( скрин №1)
* либо, нажав кнопку "Снять метки (Select None)", сняв сразу со всех файлов(скрин №2)
№1

№2

Оставляем только на нужных нам файлах (файле).

3)Нажать О.К
-Добавлена шестая, заключительная, серия второго сезонаРаботаю за
Download / Скачать

Хотите скачать бесплатно? Зарегистрируйтесь на сайте (ссылка на регистрацию). Pirat.ca - самый быстрый торрент трекер в рунете!

Как скачивать  ·   Что такое торрент  ·   Рейтинг и ограничения



Последний раз редактировалось: kugesan (2016-09-06 20:44), всего редактировалось 7 раз(а)

крутель

Лоцман

Пост 05-Окт-2014 22:51 (спустя 11 минут)

[Q] 

Спасибо! Поддай скорости))
[Профиль]  [ЛС] 

Пост 05-Окт-2014 23:22 (спустя 30 минут)

Топик был перенесен из форума Зарубежные сериалы (Трюм) в форум Сериалы в эфире
TERMOS
 

fatal1ty110

Штурман

Пост 20-Окт-2014 17:01 (спустя 14 дней)

[Q] 

чет 1ый сезон не найду на пиратке
[Профиль]  [ЛС] 

kugesan ®

56686

Пост 20-Окт-2014 17:38 (спустя 36 минут)

[Q] 

fatal1ty110,Сериал "Острые козырьки / Заточенные кепки" на треке Pirat.ca

_________________

В мире две бесконечности: вселенная и человеческая глупость - Альберт Эйнштен
«Можно вытащить человека из грязи, но нельзя вытащить грязь из человека»!
[Профиль]  [ЛС] 

eevgenu45

Морской Волк

Пост 11-Ноя-2014 10:16 (спустя 21 день)

[Q] 

Сериал зачетный, поддержу оба сезона!!!!
Когесан, как обычно на высоте, спасибо, бочка в трюме)
[Профиль]  [ЛС] 

kugesan ®

56686

Пост 12-Ноя-2014 21:52 (спустя 1 день 11 часов)

[Q] 

Добавлена шестая, заключительная, серия второго сезона

_________________

В мире две бесконечности: вселенная и человеческая глупость - Альберт Эйнштен
«Можно вытащить человека из грязи, но нельзя вытащить грязь из человека»!
[Профиль]  [ЛС] 

Пост 13-Ноя-2014 00:23 (спустя 2 часа 30 минут)

Топик был перенесен из форума Сериалы в эфире в форум Зарубежные сериалы
Андря
 

Yrets

Флибустьер

159

Пост 12-Ноя-2016 16:20 (спустя 1 год 11 месяцев)

[Q] 

Забираю. Спасибо.
[Профиль]  [ЛС] 
Показать сообщения:    
Ответить на тему

Текущее время: Сегодня 22:07

Часовой пояс: GMT + 4



Вы не можете начинать темы
Вы не можете отвечать на сообщения
Вы не можете редактировать свои сообщения
Вы не можете удалять свои сообщения
Вы не можете голосовать в опросах
Вы не можете прикреплять файлы к сообщениям
Вы не можете скачивать файлы

▼ Вниз