ML
     
  Уважаемый Гость!
Вы можете поддержать проект и зарегистрироваться у наших партнеров - онлайн-стратегия MyLands. При регистрации в игре Вы получите код, который сможете активировать после регистрации на pirat.ca и получить 1000 дублонов.

Ваш код:
b70663c760e7cd2521b8e123786cdd788200e3bd
 
     

Сошедшие с небес / Falling Skies / Сезон: 5 / Серии: 10 из 10 (Грег Биман / Greg Beeman) [2015 г., фантастика, боевик, триллер, ..., WEB-DLRip] MVO (LostFilm) [Полный]

Ответить на тему
 
Автор
Сообщение

Пост 09-Окт-2014 10:45

[Q] 

kugesan

-Сошедшие с небес / Falling Skies
«We're not just fighting for our lives. We're fighting for our existence»
-- Производство: США, Канада
Жанр: фантастика, боевик, триллер, ...
Год выпуска: 2015 г.-Мировая премьера: 19 июня 2011, ...-Озвучка: Студия
Перевод: Многоголосый закадровый, профессиональный-Режиссер: Грег Биман / Greg Beeman, Серджо Мимика-Геззан / Sergio Mimica-Gezzan, Адам Кэйн / Adam Kane, ...-В ролях: Ноа Уайли, Мун Бладгуд, Дрю Рой, Коннор Джессап, Максим Найт, Сейшелл Гэбриел, Уилл Пэттон, Сара Картер, Колин Каннингэм, Питер Шинкода, ...-Описание:
В результате инопланетного вторжения на Землю один из сыновей профессора истории Тома Мэйсона попадает в плен, а его жена гибнет. Она оказалась одной из миллионов людей, погибших от рук пришельцев. Люди, которым посчастливилось остаться в живых, вступают в партизанские отряды, объединяются для оказания сопротивления захватчикам.
Землю атакуют два вида инопланетян – прямоходящие, прекрасно вооруженные роботы Mechs и насекомоподобные Skitters. Людям приходится несладко, а борьба с незваными гостями становится все сложнее из-за того, что последние используют современное оборудование, с помощью которого можно легко определить местонахождение больших групп людей. Именно поэтому остается одна надежда на партизан, которые боролись с противником небольшими группами. Немалых усилий, а часто и человеческих жизней стоит выявление слабых сторон захватчиков.-Сезон: 5
Серии: 10 из 10 серий
Продолжительность: ~ 00:41:00 мин серия-
Качество видео: WEB-DLRip
Контейнер: AVI
Видео кодек: XviD
Аудио кодек: MP3
Видео: MPEG-4 Visual at 1577 Кбит/сек: 720 x 400 (1.800) at 23.976 fps: 0.23 Бит/Пиксели
Аудио Rus: MPEG Audio at 192 Кбит/сек: 2 канала, 48,0 КГц |LostFilm|
Cубтитры: отсутствуют
- -
  • Найди в себе воина (Find Your Warrior)
  • Испытание голодом (Hunger Pains)
  • Инкубатор (Hatchlings)
  • Поуп пускается во все тяжкие (Pope Breaks Bad)
  • Второстепенные (Non-Essential Personnel)
  • Отсрочка (Respite)
  • У всех свои причины (Everybody Has Their Reasons)
  • Шталаг 14-го Вирджинского (Stalag 14th Virginia)
  • Воссоединение (Reunion)
  • Возрождение (Reborn)
-
Общее
Полное имя : E:\_Сериалы\_Сериалы\Сошедшие с небес\Falling.Skies.S05.rus.LostFilm\Falling.Skies.S05E01.rus.LostFilm.TV.avi
Формат : AVI
Формат/Информация : Audio Video Interleave
Размер файла : 524 Мбайт
Продолжительность : 41 м.
Режим общего битрейта : Переменный
Общий поток : 1777 Кбит/сек
Программа кодирования : Nandub v1.0rc2
Библиотека кодирования : Nandub build 1853/release
Видео
Идентификатор : 0
Формат : MPEG-4 Visual
Профиль формата : Advanced [email protected]
Параметр BVOP формата : Нет
Параметр QPel формата : Нет
Параметр GMC формата : Без точки перехода
Параметр матрицы формата : Default (H.263)
Идентификатор кодека : XVID
Идентификатор кодека/Подсказка : XviD
Продолжительность : 41 м.
Битрейт : 1577 Кбит/сек
Ширина : 720 пикселей
Высота : 400 пикселей
Соотношение сторон : 16:9
Частота кадров : 23,976 кадра/сек
Цветовое пространство : YUV
Субдискретизация насыщенности : 4:2:0
Битовая глубина : 8 бит
Тип развёртки : Прогрессивная
Метод сжатия : С потерями
Бит/(Пиксели*Кадры) : 0.228
Размер потока : 465 Мбайт (89%)
Библиотека кодирования : XviD 1.2.1 (UTC 2008-12-04)
Аудио
Идентификатор : 1
Формат : MPEG Audio
Версия формата : Version 1
Профиль формата : Layer 3
Режим : Joint stereo
Расширение режима : MS Stereo
Идентификатор кодека : 55
Идентификатор кодека/Подсказка : MP3
Продолжительность : 41 м.
Вид битрейта : Переменный
Битрейт : 192 Кбит/сек
Каналы : 2 канала
Частота : 48,0 КГц
Метод сжатия : С потерями
Размер потока : 55,2 Мбайт (11%)
Выравнивание : Соединение по промежуткам
Продолжительность промежутка : 24 мс. (0,58 видеокадр)
Время предзагрузки промежутка : 492 мс.
Библиотека кодирования : LAME3.97b
Настройки программы : -m j -V 4 -q 3 -lowpass 18.6 --abr 192
-
-Скриншоты:
-
-
1. Открыть торрент
2. Снять галки с тех файлов торрента, которые мы не хотим закачивать. Оставляем только на нужных нам файлах (файле).
3. Нажать О.К.
В клиенте utorrent
Инструкция
1) Открыть торрент

2) Снять галки с тех файлов торрента, которые мы не хотим закачивать:
* либо вручную, снимая с каждого файла галку( скрин №1)
* либо, нажав кнопку "Снять метки (Select None)", сняв сразу со всех файлов(скрин №2)
№1

№2

Оставляем только на нужных нам файлах (файле).

3)Нажать О.К
Добавлена десятая, заключительная, серия пятого сезона
Download / Скачать

Хотите скачать бесплатно? Зарегистрируйтесь на сайте (ссылка на регистрацию). Pirat.ca - самый быстрый торрент трекер в рунете!

Как скачивать  ·   Что такое торрент  ·   Рейтинг и ограничения



Последний раз редактировалось: kugesan (2015-09-03 12:06), всего редактировалось 33 раз(а)

Golden

Морской Волк

Пост 03-Июл-2015 22:53 (спустя 8 месяцев 25 дней)

[Q] 

Супер! Это не просто долгожданно, а вообще невероятно!
[Профиль]  [ЛС] 

Сумрак

1660

Пост 03-Июл-2015 23:00 (спустя 6 минут)

[Q] 

жесть а я думал сериал помер ... удивили честно удивили

_________________
[Профиль]  [ЛС] 

Dmitriy1881

Корсар

Пост 24-Авг-2015 01:52 (спустя 1 месяц 20 дней)

[Q] 

спасибо за труды
[Профиль]  [ЛС] 

kugesan ®

56630

Пост 24-Авг-2015 11:07 (спустя 9 часов)

[Q] 

Приятного просмотра!!!

_________________

В мире две бесконечности: вселенная и человеческая глупость - Альберт Эйнштен
«Можно вытащить человека из грязи, но нельзя вытащить грязь из человека»!
[Профиль]  [ЛС] 

kugesan ®

56630

Пост 03-Сен-2015 12:07 (спустя 10 дней)

[Q] 

Добавлена десятая, заключительная, серия пятого сезона

_________________

В мире две бесконечности: вселенная и человеческая глупость - Альберт Эйнштен
«Можно вытащить человека из грязи, но нельзя вытащить грязь из человека»!
[Профиль]  [ЛС] 

Пост 03-Сен-2015 13:01 (спустя 54 минуты)

Топик был перенесен из форума Сериалы в эфире в форум Зарубежные сериалы
Андря
 
Показать сообщения:    
Ответить на тему

Текущее время: Сегодня 00:18

Часовой пояс: GMT + 4



Вы не можете начинать темы
Вы не можете отвечать на сообщения
Вы не можете редактировать свои сообщения
Вы не можете удалять свои сообщения
Вы не можете голосовать в опросах
Вы не можете прикреплять файлы к сообщениям
Вы не можете скачивать файлы

▼ Вниз