ML
     
  Уважаемый Гость!
Вы можете поддержать проект и зарегистрироваться у наших партнеров - онлайн-стратегия MyLands. При регистрации в игре Вы получите код, который сможете активировать после регистрации на pirat.ca и получить 1000 дублонов.

Ваш код:
0af2e2107bc9b5dd5ac2c09f9fc25e1a77c43887
 
     

Подпольная империя / Boardwalk Empire (Сезон 5 / Полный / Серии 8 из 8 серий) (Тимоти Ван Паттен / Timothy Van Patten, ...) (2014 г., драма, криминал, ..., HDTVRip) AVO (Ю.Сербин)

Ответить на тему
 
Автор
Сообщение

Пост 10-Окт-2014 10:18

[Q] 

kugesan

Подпольная империя / Boardwalk Empire
«Atlantic City, 1920.
When alcohol was outlawed, outlaws became kings.»
- Русское название: Подпольная империя
Оригинальное название: Boardwalk Empire
Страна: США
Год выпуска: 2014
Жанр: драма, криминал, ...-Премьера (мир): 19 сентября 2010, ...
Премьера (РФ): 8 ноября 2010-Перевод и озвучка: Авторский (одноголосый, закадровый) (Ю. Сербин)
Рип, синхронизация звука: qqss44
За звук спасибо HDCLUB-Режиссер: Тимоти Ван Паттен / Timothy Van Patten, Аллен Култер / Allen Coulter , Джереми Подесва / Jeremy Podeswa
Актеры: Стив Бушеми, Майкл Питт, Келли Макдоналд, Майкл Шеннон, Ши Уигхэм, Алекса Палладино, Майкл Стулбарг, Стивен Грэм, Винсент Пьяцца, Джек Хьюстон, Майкл К. Уильямс, Энтони Лакиура, Пол Спаркс, Гретхен Мол, Люси Галина, Джози Галина, Деклан Мактик, Рори Мактик, Брэйди Нун, Коннор Нун, Пас де ла Уэрта, Дэбни Коулмэн, Чарли Кокс, Анатол Юсеф, Виктор Верхак, Роберт Клохесси, Кевин О’Рурк, Хезер Линд, Уильям Хилл, Адам Муччи, Эдвард МакГинти, Бобби Каннавейл, Грег Антоначчи, Жаклин Пеннвилль, Пол Джуд Летерски-Описание фильма:
Прошло 7 лет с тех пор, как мы в последний раз видели Наки Томпсона (Стив Бушеми). Великая Депрессия окончена. Наступили новые времена, и в них уже нет места непотопляемому королю Атлантик-Сити и его подпольной империи. Ему предстоит принять свой последний бой.-Сезон: 5
Серии: 8 из 8 серий
Продолжительность: ~ 01:00:00 серия-Качество видео: HDTVRip
Формат: AVI
Видеокодек: XviD
Аудиокодек: AC-3
Видео: MPEG-4 Visual at 1444 Кбит/сек: 720 x 400 (1.800) at 23.976 fps, 0.21 Бит/Пиксели
Аудио Rus: AC-3 at 384 Кбит/сек: 6 каналов, 48,0 КГц |(Ю. Сербин)|
- -Сериал "Подпольная империя / Boardwalk Empire" на треке Pirat.ca-
  • "Золотые дни " для мальчиков и девочек (Golden Days for Boys and Girls)
  • Хороший слушатель (The Good Listener)
  • То, что сказал Иисус (What Jesus Said)
  • Сколько (Cuanto)
  • Король Норвегии (King of Norway)
  • Дьявол Вы знаете (Devil You Know)
  • Одинокий Ребенок (Friendless Child)
  • Эльдорадо (Eldorado)
-
Код:
Общее
Полное имя                               : E:\_Сериалы\_Сериалы\Подпольная Империя\Boardwalk.Empire.S05. Serbin\Boardwalk.Empire.s05e01.XviD.Serbin.[qqss44].avi
Формат                                   : AVI
Формат/Информация                        : Audio Video Interleave
Размер файла                             : 756 Мбайт
Продолжительность                        : 57 м.
Общий поток                              : 1837 Кбит/сек
Программа кодирования                    : VirtualDubMod 1.5.10.3 | www.virtualdub-fr.org || (build 2550/release)
Библиотека кодирования                   : VirtualDubMod build 2550/release
Видео
Идентификатор                            : 0
Формат                                   : MPEG-4 Visual
Профиль формата                          : Advanced [email protected]
Параметр BVOP формата                    : 2
Параметр QPel формата                    : Нет
Параметр GMC формата                     : Без точки перехода
Параметр матрицы формата                 : Default (H.263)
Идентификатор кодека                     : XVID
Идентификатор кодека/Подсказка           : XviD
Продолжительность                        : 57 м.
Битрейт                                  : 1444 Кбит/сек
Ширина                                   : 720 пикселей
Высота                                   : 400 пикселей
Соотношение сторон                       : 16:9
Частота кадров                           : 23,976 кадра/сек
Цветовое пространство                    : YUV
Субдискретизация насыщенности            : 4:2:0
Битовая глубина                          : 8 бит
Тип развёртки                            : Прогрессивная
Метод сжатия                             : С потерями
Бит/(Пиксели*Кадры)                      : 0.209
Размер потока                            : 594 Мбайт (79%)
Библиотека кодирования                   : XviD 73
Аудио
Идентификатор                            : 1
Формат                                   : AC-3
Формат/Информация                        : Audio Coding 3
Расширение режима                        : CM (complete main)
Параметр Endianness формата              : Big
Идентификатор кодека                     : 2000
Продолжительность                        : 57 м.
Вид битрейта                             : Постоянный
Битрейт                                  : 384 Кбит/сек
Каналы                                   : 6 каналов
Расположение каналов                     : Front: L C R, Side: L R, LFE
Частота                                  : 48,0 КГц
Битовая глубина                          : 16 бит
Метод сжатия                             : С потерями
Размер потока                            : 158 Мбайт (21%)
Выравнивание                             : Разделение по промежуткам
Продолжительность промежутка             : 42  мс. (1,00 видеокадр)
Время предзагрузки промежутка            : 500  мс.
820876
-
-Скриншоты:
-
-
1. Открыть торрент
2. Снять галки с тех файлов торрента, которые мы не хотим закачивать. Оставляем только на нужных нам файлах (файле).
3. Нажать О.К.
В клиенте utorrent
Инструкция
1) Открыть торрент

2) Снять галки с тех файлов торрента, которые мы не хотим закачивать:
* либо вручную, снимая с каждого файла галку( скрин №1)
* либо, нажав кнопку "Снять метки (Select None)", сняв сразу со всех файлов(скрин №2)
№1

№2

Оставляем только на нужных нам файлах (файле).

3)Нажать О.К
-Добавлена восьмая, заключительная, серия пятого сезона
Download / Скачать

Хотите скачать бесплатно? Зарегистрируйтесь на сайте (ссылка на регистрацию). Pirat.ca - самый быстрый торрент трекер в рунете!

Как скачивать  ·   Что такое торрент  ·   Рейтинг и ограничения



Последний раз редактировалось: kugesan (2016-07-04 23:30), всего редактировалось 5 раз(а)

Пост 11-Окт-2014 01:09 (спустя 14 часов)

Топик был перенесен из форума Зарубежные сериалы (Трюм) в форум Сериалы в эфире
Андря
 

kugesan ®

56687

Пост 03-Ноя-2014 01:39 (спустя 23 дня)

[Q] 

Добавлена восьмая, заключительная, серия пятого сезона

_________________

В мире две бесконечности: вселенная и человеческая глупость - Альберт Эйнштен
«Можно вытащить человека из грязи, но нельзя вытащить грязь из человека»!
[Профиль]  [ЛС] 

Tapac84

Корсар

Пост 03-Ноя-2014 02:44 (спустя 1 час 5 минут)

[Q] 

жиль, что последний
лови бочку
[Профиль]  [ЛС] 

Stalker_29

Корсар

Пост 24-Июн-2015 10:32 (спустя 7 месяцев 21 день)

[Q] 

Уважаемый Кугесан, киньте пож ссылку на 3-й сезон.
[Профиль]  [ЛС] 

kugesan ®

56687

Пост 24-Июн-2015 13:01 (спустя 2 часа 29 минут)

[Q] 

Stalker_29, Преступная империя / Boardwalk Empire (Сезон 3, Серии 12 из 12) (Тимоти Ван Паттен / Timothy Van Patten ...) [2012г., Драма, Криминал, WEB-DLRip] MVO (LostFilm) [обновляемая]

_________________

В мире две бесконечности: вселенная и человеческая глупость - Альберт Эйнштен
«Можно вытащить человека из грязи, но нельзя вытащить грязь из человека»!
[Профиль]  [ЛС] 

Stalker_29

Корсар

Пост 24-Июн-2015 15:26 (спустя 2 часа 24 минуты)

[Q] 

Огромное спасибо)
[Профиль]  [ЛС] 

raul kurochka

Корсар

Пост 07-Янв-2016 21:43 (спустя 6 месяцев 13 дней)

[Q] 

За Сербина респектос!
Автору так же - Семь Футов под Килем! ©
Лови бочку
Добавлено спустя 1 минута 26 секунд:
687696Уважаемый Кугесан, киньте пож ссылку на 3-й сезон.
А с первого по третий лучше в озвучке "Кубик в Кубе" смотреть. Отвечаю!

_________________
...ЧО ТАКОЙ СЕРЬЕЗНЫЙ???
[Профиль]  [ЛС] 

Alingva

Гроза морей

18

Пост 06-Июл-2016 00:18 (спустя 5 месяцев 29 дней)

[Q] 

Спасибо глянем-с! Автору респект!!!

_________________
Если Вам кажется что у Вас нимб над головой, то не обращайте на него внимание - это просто мания величия!
[Профиль]  [ЛС] 
Показать сообщения:    
Ответить на тему

Текущее время: Сегодня 00:08

Часовой пояс: GMT + 4



Вы не можете начинать темы
Вы не можете отвечать на сообщения
Вы не можете редактировать свои сообщения
Вы не можете удалять свои сообщения
Вы не можете голосовать в опросах
Вы не можете прикреплять файлы к сообщениям
Вы не можете скачивать файлы

▼ Вниз