ML
     
  Уважаемый Гость!
Вы можете поддержать проект и зарегистрироваться у наших партнеров - онлайн-стратегия MyLands. При регистрации в игре Вы получите код, который сможете активировать после регистрации на pirat.ca и получить 1000 дублонов.

Ваш код:
a978488e62322cd72e113ab723b8a7fdc10eb9b9
 
     

Стрела / Arrow / Сезон 3 / Полный / Серии: 23 из 23 (Джон Беринг / John Behring ...) [2014г., Фантастика, Боевик, Драма, Криминал, Детектив, Приключения, WEB-DLRip] MVO (BaibaKo) + Original (Eng)

Ответить на тему
 
Автор
Сообщение

Пост 10-Окт-2014 22:30

[Q] 

kugesan

Стрела / Arrow
«Судьба оставляет свой отпечаток»
- Русское название: Стрела
Оригинальное название: Arrow
Страна: США
Год выпуска: 2014
Жанр: Фантастика, Боевик, Драма, Криминал, Детектив, Приключения-Релиз:
Перевод: Профессиональный (многоголосый, закадровый)
Оригинальный аудиопоток: английский-Над релизом работали:
Автор перевода: Янина Галицкая
Озвучка: Владимир Курдов, Алексей Кузнецов, Артемий Мирон, Юлия Котурбаш и Светлана Доманова
Обложка: Антон Максимов-Режиссер: Джон Беринг / John Behring, Гай Норман Би / Guy Norman Bee, Ник Копус / Nick Copus
Актеры: Стивен Амелл, Эмили Бетт Рикардс, Кэти Кэссиди, Уилла Холлэнд, Джейми Шеридан, Жаклин МакИннес Вуд, Колин Сэлмон, Кэтлин Гати, Пол Блекторн, Сюзанна Томпсон и др.-Описание фильма:
После кораблекрушения плейбой миллиардер Оливер Куин пропадает и считается погибшим в течение пяти лет, после чего его обнаруживают живым на затерянном острове в Тихом океане. Когда он возвращается домой в Старлинг-Сити, его преданная мать Мойра, столь любимая сестра Теа и лучший друг Томми приветствуют его дома, но они видят, что Оливер изменился после испытаний на острове. Хотя Оливер скрывает правду о человеке, которым он стал…-Премьера (мир): 10 октября 2012
Премьера (РФ): 10 января 2013
Релиз на DVD: 9 октября 2014, «CP Дистрибуция», ...-Сезон: 3
Серии: 23 из 23 серий
Продолжительность: ~ 00:42:00 серия-
Качество видео: WEB-DLRip
Контейнер: AVI
Видео кодек: XviD
Аудио кодек: MP3
Видео: MPEG-4 Visual at 1504 Кбит/сек: 720 x 400 (1.800) at 23.976 fps, 0.22 Бит/Пиксели
Аудио Rus: MPEG Audio at 192 Кбит/сек, 2 канала, 48,0 КГц |BaibaKo|
Аудио Eng: MPEG Audio at 192 Кбит/сек: 2 канала, 48,0 КГц |Original|
Cубтитры: отсутствуют
- -Сериал "Стрела / Arrow" на треке Pirat.ca-
  • Покой (The Calm)
  • Сара (Sara)
  • Корте Мальтез (Corto Maltese)
  • Волшебник (The Magician)
  • Тайное прошлое Филисити Смок (The Secret Origin of Felicity Smoak)
  • Виновен (Guilty)
  • Убери свой лук (Draw Back Your Bow)
  • Храбрый и заносчивый (The Brave and the Bold)
  • Восхождение (The Climb)
  • Оставленный (Left Behind)
  • Полуночный город (Midnight City)
  • Восстание (Uprising)
  • Канарейки (Canaries)
  • Возвращение (The Return)
  • Нанда Парбат (Nanda Parbat)
  • Предложение (The Offer)
  • Суицидальные тенденции (Suicidal Tendencies)
  • Враг народа (Public Enemy)
  • Сломанная стрела (Broken Arrow)
  • Падший (The Fallen)
  • Аль Сах-хим (Al Sah-him)
  • Это твой меч (This Is Your Sword)
  • Меня зовут Оливер Квин (My Name Is Oliver Queen)
-
Общее
Полное имя : E:\_Сериалы\_Сериалы\Стрела\Arrow.s03.BaibaKo\Arrow.s03e01.WEB-DLRip.XviD.Rus.Eng.BaibaKo.tv.avi
Формат : AVI
Формат/Информация : Audio Video Interleave
Размер файла : 579 Мбайт
Продолжительность : 42 м.
Общий поток : 1902 Кбит/сек
Программа кодирования : VirtualDubMod 1.5.10.2 (build 2540/release)
Библиотека кодирования : VirtualDubMod build 2540/release
Видео
Идентификатор : 0
Формат : MPEG-4 Visual
Профиль формата : Advanced [email protected]
Параметр BVOP формата : 2
Параметр QPel формата : Нет
Параметр GMC формата : Без точки перехода
Параметр матрицы формата : Default (H.263)
Идентификатор кодека : XVID
Идентификатор кодека/Подсказка : XviD
Продолжительность : 42 м.
Битрейт : 1504 Кбит/сек
Ширина : 720 пикселей
Высота : 400 пикселей
Соотношение сторон : 16:9
Частота кадров : 23,976 кадра/сек
Цветовое пространство : YUV
Субдискретизация насыщенности : 4:2:0
Битовая глубина : 8 бит
Тип развёртки : Прогрессивная
Метод сжатия : С потерями
Бит/(Пиксели*Кадры) : 0.218
Размер потока : 458 Мбайт (79%)
Библиотека кодирования : XviD 1.2.1 (UTC 2008-12-04)
Аудио #1
Идентификатор : 1
Формат : MPEG Audio
Версия формата : Version 1
Профиль формата : Layer 3
Режим : Joint stereo
Расширение режима : MS Stereo
Идентификатор кодека : 55
Идентификатор кодека/Подсказка : MP3
Продолжительность : 42 м.
Вид битрейта : Постоянный
Битрейт : 192 Кбит/сек
Каналы : 2 канала
Частота : 48,0 КГц
Метод сжатия : С потерями
Размер потока : 58,4 Мбайт (10%)
Выравнивание : Соединение по промежуткам
Продолжительность промежутка : 42 мс. (1,00 видеокадр)
Время предзагрузки промежутка : 504 мс.
Аудио #2
Идентификатор : 2
Формат : MPEG Audio
Версия формата : Version 1
Профиль формата : Layer 3
Режим : Joint stereo
Расширение режима : MS Stereo
Идентификатор кодека : 55
Идентификатор кодека/Подсказка : MP3
Продолжительность : 42 м.
Вид битрейта : Постоянный
Битрейт : 192 Кбит/сек
Каналы : 2 канала
Частота : 48,0 КГц
Метод сжатия : С потерями
Размер потока : 58,4 Мбайт (10%)
Выравнивание : Соединение по промежуткам
Продолжительность промежутка : 42 мс. (1,00 видеокадр)
Время предзагрузки промежутка : 504 мс.
-
-Скриншоты:
-
-
1. Открыть торрент
2. Снять галки с тех файлов торрента, которые мы не хотим закачивать. Оставляем только на нужных нам файлах (файле).
3. Нажать О.К.
В клиенте utorrent
Инструкция
1) Открыть торрент

2) Снять галки с тех файлов торрента, которые мы не хотим закачивать:
* либо вручную, снимая с каждого файла галку( скрин №1)
* либо, нажав кнопку "Снять метки (Select None)", сняв сразу со всех файлов(скрин №2)
№1

№2

Оставляем только на нужных нам файлах (файле).

3)Нажать О.К
-Добавлена двадцать третья, заключительная, серия третьего сезона
Download / Скачать

Хотите скачать бесплатно? Зарегистрируйтесь на сайте (ссылка на регистрацию). Pirat.ca - самый быстрый торрент трекер в рунете!

Как скачивать  ·   Что такое торрент  ·   Рейтинг и ограничения



Последний раз редактировалось: kugesan (2016-01-10 23:13), всего редактировалось 35 раз(а)

Пост 11-Окт-2014 01:09 (спустя 2 часа 39 минут)

Топик был перенесен из форума Зарубежные сериалы (Трюм) в форум Сериалы в эфире
Андря
 

SHERHAN

683

Пост 11-Окт-2014 08:14 (спустя 9 часов)

[Q] 

Спасибо!!! Автору респект!!!

_________________
Рыжий хищник, полосатый,
В меру наглый и усатый,
Днём и ночью он не спит,
Зорко в монитор глядит!
[Профиль]  [ЛС] 

viktor41

Шкипер

Пост 06-Дек-2014 11:47 (спустя 1 месяц 26 дней)

[Q] 

kugesan, Спасибо! Всем качать!!! Автору респект!!!
[Профиль]  [ЛС] 

kugesan ®

56686

Пост 06-Дек-2014 12:04 (спустя 17 минут)

[Q] 

Приятного просмотра!!!

_________________

В мире две бесконечности: вселенная и человеческая глупость - Альберт Эйнштен
«Можно вытащить человека из грязи, но нельзя вытащить грязь из человека»!
[Профиль]  [ЛС] 

vbFlick

Шкипер

Пост 27-Фев-2015 20:21 (спустя 2 месяца 21 день)

[Q] 

накиньте скорости немного
[Профиль]  [ЛС] 

pdb08

Легенда

Пост 02-Май-2015 10:30 (спустя 2 месяца 2 дня)

[Q] 

Спасибо!!! Автору респект!!!

_________________
[Профиль]  [ЛС] 

kugesan ®

56686

Пост 15-Май-2015 20:39 (спустя 13 дней)

[Q] 

Добавлена двадцать третья, заключительная, серия третьего сезона

_________________

В мире две бесконечности: вселенная и человеческая глупость - Альберт Эйнштен
«Можно вытащить человека из грязи, но нельзя вытащить грязь из человека»!
[Профиль]  [ЛС] 

Пост 15-Май-2015 21:03 (спустя 24 минуты)

Топик был перенесен из форума Сериалы в эфире в форум Зарубежные сериалы
Андря
 
Показать сообщения:    
Ответить на тему

Текущее время: Сегодня 22:08

Часовой пояс: GMT + 4



Вы не можете начинать темы
Вы не можете отвечать на сообщения
Вы не можете редактировать свои сообщения
Вы не можете удалять свои сообщения
Вы не можете голосовать в опросах
Вы не можете прикреплять файлы к сообщениям
Вы не можете скачивать файлы

▼ Вниз