ML
     
  Уважаемый Гость!
Вы можете поддержать проект и зарегистрироваться у наших партнеров - онлайн-стратегия MyLands. При регистрации в игре Вы получите код, который сможете активировать после регистрации на pirat.ca и получить 1000 дублонов.

Ваш код:
8b752b428cf60a012c159dcae592cd1392170115
 
     

Ходячие мертвецы / The Walking Dead / Сезон: 5 / Серии: 1-16 (16) (Эрнест Р. Дикерсон / Ernest R. Dickerson, ...) [2014-2015 гг., ужасы, триллер, драма, BDRip, 1080p] MVO (FOX, LostFilm, UATEAM) + Original (Eng) + Sub (Rus, Eng)

Ответить на тему
 
Автор
Сообщение

Пост 14-Окт-2014 08:17

[Q] 

TERMOS

Легенда

-Ходячие мертвецы / The Walking Dead
«Fight the dead. Fear the living»
(5 сезон)
-- Производство: США
Жанр: ужасы, триллер, драма
Год выпуска: 2014 - 2015 гг.
Продолжительность: 16х ~00:44:00
Мировая премьера: 31 октября 2010
Российская премьера: 4 ноября 2010
Перевод: Профессиональный (многоголосый, закадровый) [ FOX]
Перевод 2: Профессиональный (многоголосый, закадровый) [ LostFilm]
Перевод 3: Профессиональный (многоголосый, закадровый) [UATEAM]
Оригинальный аудиопоток: английский
Режиссер: Эрнест Р. Дикерсон / Ernest R. Dickerson, Гай Ферленд / Guy Ferland, Грег Никотеро / Greg Nicotero ...-В ролях: Эндрю Линкольн, Стивен Ян, Чендлер Риггз, Норман Ридус, Мелисса Сюзанн МакБрайд, Лорен Кохэн, Эмили Кинни, Данай Джекесай Гурира, Скотт Уилсон, Чад Коулмэн-Описание: Сериал рассказывает историю жизни семьи шерифа после того, как «зомби» - эпидемия апокалиптических масштабов захлестнула земной шар. Шериф Рик Граймс путешествует со своей семьей и небольшой группой выживших в поисках безопасного места для жизни. Но постоянный страх смерти каждый день приносит тяжелые потери, заставляя героев почувствовать глубины человеческой жестокости. Рик пытается спасти свою семью, и открывает для себя, что всепоглощающий страх тех, кто выжил, может быть опаснее бессмысленных мертвецов, бродящих по земле.
- - -Качество видео: BDRip
Контейнер: MKV
Стандарт разрешения: 1080p
Видео кодек: H.264/AVC
Аудио кодек: AC3
Видео: 1920x1080 at 23.976 fps, ~10.1 Mbps avg
Аудио: Russian: 48 kHz, AC3, 3/2 (L,C,R,l,r) + LFE ch, ~640.00 kbps avg |Многоголосый закадровый, FOX|
Аудио #2: Russian: 48 kHz, AC3, 3/2 (L,C,R,l,r) + LFE ch, ~640.00 kbps avg |Многоголосый закадровый, LostFilm|
Аудио #3: Ukrainian: 48 kHz, AC3, 3/2 (L,C,R,l,r) + LFE ch, ~640.00 kbps avg |Многоголосый закадровый, UATEAM|
Аудио #4: English: 48 kHz, AC3, 3/2 (L,C,R,l,r) + LFE ch, ~640.00 kbps avg
Аудио #5: English: 48 kHz, AC3, 2/0 (L,R) ch, ~192.00 kbps avg - |Commentary|
Аудио #6: English: 48 kHz, AC3, 2/0 (L,R) ch, ~192.00 kbps avg - |Commentary|
Cубтитры: Russian (N-Team), English
01: No Sanctuary: Writer/Executive Producer Scott M. Gimple and Executive Producer Gale Anne Hurd
01: No Sanctuary: Executive Producer/Special Make-Up Artist/Director Greg Nicotero and Actor Melissa McBride.
05: Self Help: Actors Steven Yeun, Lauren Cohan, Michael Cudlitz, Josh McDermitt, Christian Serratos, and Alanna Masterson.
09: What Happened and What's Going On: Executive Producer/Special Effects Make-Up Artist/Director Greg Nicotero and Actor Chad L. Coleman.
10: Them: Director Julius Ramsay and Actors Norman Redus and Sonequa Martin-Green.
12: Remember: Executive Producer/Special Effects Make-Up Artist/Director Greg Nicotero, Executive Producer Tom Luse, and Actor Danai Gurira.
16: Conquer: Executive Producer/Special Effects Make-Up Artist/Director Greg Nicotero and Writer/Executive Producer Scott M. Gimple.
01: No Sanctuary / Убежища нет
02: Strangers / Незнакомцы
03: Four Walls and a Roof / Четыре стены и крыша
04: Slabtown / Слэбтаун
05: Self Help / Самообслуживание
06: Consumed / Поглощённые
07: Crossed / Обман
08: Coda / Кода
09: What Happened and What's Going On / Что случилось и что происходит
10: Them / Они
11: The Distance / Дистанция
12: Remember / Помни
13: Forget / Забудь
14: Spend / Тратить
15: Try / Стараться
16: Conquer / Покорить
Код:
General
Unique ID                   : 252098865005978327410714548330206786492 (0xBDA879ADA9302F889D16E07CF35AF3BC)
Complete name               : U:\Uploads\Pirat.Ca\The Walking Dead - Season 5 (2014)[1080p.BluRay.Rus.Ukr.Eng]\The.Walking.Dead.S05E01.No.Sanctuary.1080p.BluRay.Rus.Ukr.Eng.HDCLUB.mkv
Format                      : Matroska
Format version              : Version 4 / Version 2
File size                   : 3.98 GiB
Duration                    : 43mn 37s
Overall bit rate            : 13.1 Mbps
Movie name                  : The Walking Dead 5x01 (2014)
Encoded date                : UTC 2015-09-29 09:21:32
Writing application         : mkvmerge v8.3.0 ('Over the Horizon') 64bit
Writing library             : libebml v1.3.1 + libmatroska v1.4.2
DURATION                    : 00:42:29.297000000
NUMBER_OF_FRAMES            : 492
NUMBER_OF_BYTES             : 12889
_STATISTICS_WRITING_APP     : mkvmerge v8.3.0 ('Over the Horizon') 64bit
_STATISTICS_WRITING_DATE_UT : 2015-09-29 09:21:32
_STATISTICS_TAGS            : BPS DURATION NUMBER_OF_FRAMES NUMBER_OF_BYTES
Video
ID                          : 1
Format                      : AVC
Format/Info                 : Advanced Video Codec
Format profile              : [email protected]
Format settings, CABAC      : Yes
Format settings, ReFrames   : 4 frames
Codec ID                    : V_MPEG4/ISO/AVC
Duration                    : 43mn 37s
Bit rate                    : 10.1 Mbps
Width                       : 1 920 pixels
Height                      : 1 080 pixels
Display aspect ratio        : 16:9
Frame rate mode             : Constant
Frame rate                  : 23.976 fps
Color space                 : YUV
Chroma subsampling          : 4:2:0
Bit depth                   : 8 bits
Scan type                   : Progressive
Bits/(Pixel*Frame)          : 0.203
Stream size                 : 3.00 GiB (75%)
Title                       : The Walking Dead 5x01: No Sanctuary / Убежища нет
Writing library             : x264 core 146 r2538 121396c
Encoding settings           : cabac=1 / ref=4 / deblock=1:0:0 / analyse=0x3:0x133 / me=umh / subme=7 / psy=1 / psy_rd=1.00:0.00 / mixed_ref=1 / me_range=16 / chroma_me=1 / trellis=1 / 8x8dct=1 / cqm=0 / deadzone=21,11 / fast_pskip=0 / chroma_qp_offset=-2 / threads=60 / lookahead_threads=8 / sliced_threads=0 / nr=0 / decimate=1 / interlaced=0 / bluray_compat=0 / constrained_intra=0 / bframes=3 / b_pyramid=2 / b_adapt=1 / b_bias=0 / direct=1 / weightb=1 / open_gop=0 / weightp=2 / keyint=250 / keyint_min=23 / scenecut=40 / intra_refresh=0 / rc_lookahead=40 / rc=2pass / mbtree=1 / bitrate=10107 / ratetol=1.0 / qcomp=0.60 / qpmin=0 / qpmax=69 / qpstep=4 / cplxblur=20.0 / qblur=0.5 / ip_ratio=1.40 / aq=1:1.00
Language                    : English
Default                     : Yes
Forced                      : No
DURATION                    : 00:43:37.536000000
NUMBER_OF_FRAMES            : 62758
NUMBER_OF_BYTES             : 3308413779
_STATISTICS_WRITING_APP     : mkvmerge v8.3.0 ('Over the Horizon') 64bit
_STATISTICS_WRITING_DATE_UT : 2015-09-29 09:21:32
_STATISTICS_TAGS            : BPS DURATION NUMBER_OF_FRAMES NUMBER_OF_BYTES
Audio #1
ID                          : 2
Format                      : AC-3
Format/Info                 : Audio Coding 3
Mode extension              : CM (complete main)
Format settings, Endianness : Big
Codec ID                    : A_AC3
Duration                    : 43mn 37s
Bit rate mode               : Constant
Bit rate                    : 640 Kbps
Channel(s)                  : 6 channels
Channel positions           : Front: L C R, Side: L R, LFE
Sampling rate               : 48.0 KHz
Bit depth                   : 16 bits
Compression mode            : Lossy
Stream size                 : 200 MiB (5%)
Title                       : FOX
Language                    : Russian
Default                     : Yes
Forced                      : No
Audio #2
ID                          : 3
Format                      : AC-3
Format/Info                 : Audio Coding 3
Mode extension              : CM (complete main)
Format settings, Endianness : Big
Codec ID                    : A_AC3
Duration                    : 43mn 37s
Bit rate mode               : Constant
Bit rate                    : 640 Kbps
Channel(s)                  : 6 channels
Channel positions           : Front: L C R, Side: L R, LFE
Sampling rate               : 48.0 KHz
Bit depth                   : 16 bits
Compression mode            : Lossy
Stream size                 : 200 MiB (5%)
Title                       : LostFilm
Language                    : Russian
Default                     : No
Forced                      : No
Audio #3
ID                          : 4
Format                      : AC-3
Format/Info                 : Audio Coding 3
Mode extension              : CM (complete main)
Format settings, Endianness : Big
Codec ID                    : A_AC3
Duration                    : 43mn 37s
Bit rate mode               : Constant
Bit rate                    : 640 Kbps
Channel(s)                  : 6 channels
Channel positions           : Front: L C R, Side: L R, LFE
Sampling rate               : 48.0 KHz
Bit depth                   : 16 bits
Compression mode            : Lossy
Stream size                 : 200 MiB (5%)
Title                       : UATEAM
Language                    : Ukrainian
Default                     : No
Forced                      : No
Audio #4
ID                          : 5
Format                      : AC-3
Format/Info                 : Audio Coding 3
Mode extension              : CM (complete main)
Format settings, Endianness : Big
Codec ID                    : A_AC3
Duration                    : 43mn 37s
Bit rate mode               : Constant
Bit rate                    : 640 Kbps
Channel(s)                  : 6 channels
Channel positions           : Front: L C R, Side: L R, LFE
Sampling rate               : 48.0 KHz
Bit depth                   : 16 bits
Compression mode            : Lossy
Stream size                 : 200 MiB (5%)
Language                    : English
Default                     : No
Forced                      : No
Audio #5
ID                          : 6
Format                      : AC-3
Format/Info                 : Audio Coding 3
Mode extension              : CM (complete main)
Format settings, Endianness : Big
Codec ID                    : A_AC3
Duration                    : 43mn 37s
Bit rate mode               : Constant
Bit rate                    : 192 Kbps
Channel(s)                  : 2 channels
Channel positions           : Front: L R
Sampling rate               : 48.0 KHz
Bit depth                   : 16 bits
Compression mode            : Lossy
Stream size                 : 59.9 MiB (1%)
Title                       : Commentary
Language                    : English
Default                     : No
Forced                      : No
Audio #6
ID                          : 7
Format                      : AC-3
Format/Info                 : Audio Coding 3
Mode extension              : CM (complete main)
Format settings, Endianness : Big
Codec ID                    : A_AC3
Duration                    : 43mn 37s
Bit rate mode               : Constant
Bit rate                    : 192 Kbps
Channel(s)                  : 2 channels
Channel positions           : Front: L R
Sampling rate               : 48.0 KHz
Bit depth                   : 16 bits
Compression mode            : Lossy
Stream size                 : 59.9 MiB (1%)
Title                       : Commentary
Language                    : English
Default                     : No
Forced                      : No
Text #1
ID                          : 8
Format                      : UTF-8
Codec ID                    : S_TEXT/UTF8
Codec ID/Info               : UTF-8 Plain Text
Language                    : Russian
Default                     : No
Forced                      : No
Text #2
ID                          : 9
Format                      : UTF-8
Codec ID                    : S_TEXT/UTF8
Codec ID/Info               : UTF-8 Plain Text
Language                    : English
Default                     : No
Forced                      : No
Menu
00:00:00.000                : en:00:00:00.000
00:09:01.291                : en:00:09:01.291
00:19:03.142                : en:00:19:03.142
00:25:03.836                : en:00:25:03.836
00:31:38.688                : en:00:31:38.688
00:39:42.964                : en:00:39:42.964
00:42:30.631                : en:00:42:30.631
Download / Скачать

Хотите скачать бесплатно? Зарегистрируйтесь на сайте (ссылка на регистрацию). Pirat.ca - самый быстрый торрент трекер в рунете!

Как скачивать  ·   Что такое торрент  ·   Рейтинг и ограничения



Последний раз редактировалось: TERMOS (2015-09-30 23:50), всего редактировалось 10 раз(а)

TERMOS ®

Легенда

11995

Пост 14-Окт-2014 08:20 (спустя 2 минуты)

[Q] 

Через денёк-другой добавлю дорогу Лоста.
ПС. Оформлено на работе, скорость будет вечером.

_________________
[Профиль]  [ЛС] 

KHETAG

Шкипер

Пост 14-Окт-2014 14:31 (спустя 6 часов)

[Q] 

Ура) Всем качать!!! ВСЕМ СЮДА ТУТ FULL HD!)
Лови бочку
[Профиль]  [ЛС] 

TERMOS ®

Легенда

11995

Пост 21-Окт-2014 01:50 (спустя 6 дней)

[Q] 

Добавлена 2-я серия. В первой серии добавлена озвучка Лостфильма. Обновите торрент-файл!

_________________
[Профиль]  [ЛС] 

Shamer

Штурман

Пост 21-Окт-2014 10:30 (спустя 8 часов)

[Q] 

Спасибо!!! Лови бочку !!!
[Профиль]  [ЛС] 

atribut

Морской Волк

Пост 21-Окт-2014 15:21 (спустя 4 часа)

[Q] 

мощный сериал, раскрывает какие же люди бывают нелюдями Спасибо!!! Раздающему респект!

_________________
Подпись отключена за нарушение правил форума
[Профиль]  [ЛС] 

TERMOS ®

Легенда

11995

Пост 21-Окт-2014 16:53 (спустя 1 час 31 минута)

[Q] 

KHETAG, Shamer, atribut, az

_________________
[Профиль]  [ЛС] 

KHETAG

Шкипер

Пост 28-Окт-2014 08:51 (спустя 6 дней)

[Q] 

где сериал? Кто здесь?
[Профиль]  [ЛС] 

KHETAG

Шкипер

Пост 30-Окт-2014 09:44 (спустя 2 дня)

[Q] 

Ухожу с раздачи! А в чём собсно дело? Ой как стыдно-то...
[Профиль]  [ЛС] 

TERMOS ®

Легенда

11995

Пост 07-Ноя-2014 20:04 (спустя 8 дней)

[Q] 

Раздача полностью обновлена. Во всех сериях все дороги. Добавлены 3,4-я серии. Обновите торрент-файл!
P.S. Хотел завтра раздать из дома. Но раз требуете - раздаю с работы по ADSL. Скорость - завтра вечером.

_________________
[Профиль]  [ЛС] 

Zasedatelev

Морской Волк

Пост 07-Ноя-2014 20:18 (спустя 13 минут)

[Q] 

5 сезон самый смачный получился, на мой взгляд. А вообще - отличный сериал.
[Профиль]  [ЛС] 

KHETAG

Шкипер

Пост 08-Ноя-2014 18:25 (спустя 22 часа)

[Q] 

TERMOS Спасибо за возвращение! Мне понравилось
[Профиль]  [ЛС] 

TERMOS ®

Легенда

11995

Пост 12-Ноя-2014 17:18 (спустя 3 дня)

[Q] 

Добавлена 5-я серия. Обновите торрент-файл!
P.S. Скорость будет через 3 часа.

_________________
[Профиль]  [ЛС] 

TERMOS ®

Легенда

11995

Пост 19-Ноя-2014 17:58 (спустя 7 дней)

[Q] 

Добавлена 6-я серия. Обновите торрент-файл!

_________________
[Профиль]  [ЛС] 

TERMOS ®

Легенда

11995

Пост 08-Дек-2014 16:21 (спустя 18 дней)

[Q] 

Добавлены 7-я и 8-я серии. Обновите торрент-файл!
И до встречи в феврале! ad

_________________
[Профиль]  [ЛС] 

Васис

Корсар

1028

Пост 08-Дек-2014 16:30 (спустя 8 минут)

[Q] 

Спасибо! Лови бочку

_________________
[Профиль]  [ЛС] 

TERMOS ®

Легенда

11995

Пост 08-Дек-2014 16:42 (спустя 12 минут)

[Q] 

max1812, спасибо за ром! az

_________________
[Профиль]  [ЛС] 

lexlexxxx

Юнга

Пост 11-Дек-2014 18:59 (спустя 3 дня)

[Q] 

а что 9 серии нет?
[Профиль]  [ЛС] 

TERMOS ®

Легенда

11995

Пост 12-Дек-2014 21:31 (спустя 1 день 2 часа)

[Q] 

lexlexxxx, я же написал: 09. (премьера 8 февраля 2015 г.)

_________________
[Профиль]  [ЛС] 

lexlexxxx

Юнга

Пост 17-Янв-2015 15:29 (спустя 1 месяц 4 дня)

[Q] 

понял спб!!!!!!!!!!!!!!!!
[Профиль]  [ЛС] 

oleg2000

Штурман

Пост 09-Фев-2015 20:20 (спустя 23 дня)

[Q] 

??????? ??????????!!! ???? ?????!
[Профиль]  [ЛС] 

TERMOS ®

Легенда

11995

Пост 09-Фев-2015 21:35 (спустя 1 час 15 минут)

[Q] 

oleg2000, Оо, точно! ad

_________________
[Профиль]  [ЛС] 

kloctuk

3298

Пост 09-Фев-2015 21:51 (спустя 15 минут)

[Q] 

Значит скоро...

_________________
-выстрели еще разок. -зачем? - его душа еще танцует...
[Профиль]  [ЛС] 

TERMOS ®

Легенда

11995

Пост 11-Фев-2015 09:57 (спустя 1 день 12 часов)

[Q] 

Добавлена 9-я серия. Обновите торрент-файл!

_________________
[Профиль]  [ЛС] 

сергей ш

Лоцман

Пост 09-Мар-2015 22:18 (спустя 26 дней)

[Q] 

Привет! Обновления запаздывают!
[Профиль]  [ЛС] 

TERMOS ®

Легенда

11995

Пост 30-Сен-2015 23:53 (спустя 6 месяцев 21 день)

[Q] 

Мой должок... ch WEB-DL заменён на BDRip. Обновите торрент-файл!

_________________
[Профиль]  [ЛС] 

VikVik88

Шкипер

Пост 14-Дек-2015 19:08 (спустя 2 месяца 13 дней)

[Q] 

спасибо)встаньте на раздачу Спасибо!!! Эй, вернитесь на раздачу...
[Профиль]  [ЛС] 
Показать сообщения:    
Ответить на тему

Текущее время: Сегодня 06:19

Часовой пояс: GMT + 4



Вы не можете начинать темы
Вы не можете отвечать на сообщения
Вы не можете редактировать свои сообщения
Вы не можете удалять свои сообщения
Вы не можете голосовать в опросах
Вы не можете прикреплять файлы к сообщениям
Вы не можете скачивать файлы

▼ Вниз