ML
     
  Уважаемый Гость!
Вы можете поддержать проект и зарегистрироваться у наших партнеров - онлайн-стратегия MyLands. При регистрации в игре Вы получите код, который сможете активировать после регистрации на pirat.ca и получить 1000 дублонов.

Ваш код:
8b752b428cf60a012c159dcae592cd1392170115
 
     

Ходячие мертвецы / The Walking Dead / Сезон 5 / Полный / Серии: 16 из 16 (Эрнест Р. Дикерсон / Ernest R. Dickerson ...) [2014г., ужасы, триллер, драма, ..., WEBDLRip] MVO (FOX) + Original (Eng)

Ответить на тему
 
Автор
Сообщение

Пост 14-Окт-2014 12:28

[Q] 

kugesan

Ходячие мертвецы / The Walking Dead
«Fight the dead. Fear the living.»
- Русское название: Ходячие мертвецы
Оригинальное название: The Walking Dead
Страна: США
Год выпуска: 2014
Жанр: Ужасы, Триллер, Драма, Приключения ...-Подготовка релиза: |NewStudio|
Озвучка: |FOX|
Перевод: Профессиональный (многоголосый, закадровый)
Оригинальный аудиопоток: английский-Премьера (мир): 31 октября 2010
Премьера (РФ): 4 ноября 2010-Режиссер: Эрнест Р. Дикерсон / Ernest R. Dickerson, Гай Ферленд / Guy Ferland, Грег Никотеро / Greg Nicotero ...
В главных ролях: Эндрю Линкольн, Стивен Ян, Чендлер Риггз, Норман Ридус, Мелисса Сюзанн МакБрайд, Лорен Кохэн, Сара Уэйн Кэллис, Лори Холден, Скотт Уилсон, Эмили Кинни ...-Описание фильма:
После страшной болезни, превратившей жителей Земли в зомби, небольшая группа пока еще живых людей изо дня в день борется за выживание в новом, враждебном мире. Под предводительством бывшего полицейского Рика они ищут безопасное для жизни место, но зомби — это не самое страшное, что их ждет, основная опасность — это жестокое внутреннее соперничество среди выживших.-Сезон: 5
Серии: 16 из 16 серий
Продолжительность: ~ 00:43:00 мин серия-
Качество видео: WEBDLRip
Формат: AVI
Видеокодек: XviD
Аудиокодек: MP3
Видео: MPEG-4 Visual at 1324 Кбит/сек: 720 x 400 (1.800) at 23.976 fps, 0.19 Бит/Пиксели
Аудио Rus: MPEG Audio at 128 Кбит/сек: 2 канала, 48,0 КГц |FOX|
Аудио Eng: MPEG Audio at 128 Кбит/сек: 2 канала, 48,0 КГц |Original|
-VA - Ходячие мертвецы
Rameses B - The Walking Dead
Сериал "Ходячие мертвецы / The Walking Dead " на треке Pirat.ca-
  • Нет Святилища (No Sanctuary)
  • Незнакомцы (Strangers)
  • Четыре стены и крыша (Four Walls and a Roof)
  • Слэбтаун (Slabtown)
  • Самообслуживание (Self Help)
  • Поглощённые (Consumed)
  • Пересеченный (Crossed)
  • Хвост (Coda)
  • Что случилось и что происходит (What Happened and What's Going On)
  • К ним (Them)
  • Расстояние (The Distance)
  • Помни (Remember)
  • Забыть (Forget)
  • Тратить (Spend)
  • Пытаться (Try)
  • Подчинить (Conquer)
-
Общее
Полное имя : E:\_Сериалы\_Сериалы\Ходячие мертвецы\The Walking Dead.s05.NewStudio\The.Walking.Dead.s05e01.WEBDLRip.NewStudio.TV.avi
Формат : AVI
Формат/Информация : Audio Video Interleave
Размер файла : 498 Мбайт
Продолжительность : 43 м.
Общий поток : 1594 Кбит/сек
Программа кодирования : VirtualDubMod 1.5.10.2 (build 2540/release)
Библиотека кодирования : VirtualDubMod build 2540/release
Видео
Идентификатор : 0
Формат : MPEG-4 Visual
Профиль формата : Advanced [email protected]
Параметр BVOP формата : 2
Параметр QPel формата : Нет
Параметр GMC формата : Без точки перехода
Параметр матрицы формата : Default (MPEG)
Идентификатор кодека : XVID
Идентификатор кодека/Подсказка : XviD
Продолжительность : 43 м.
Битрейт : 1324 Кбит/сек
Ширина : 720 пикселей
Высота : 400 пикселей
Соотношение сторон : 16:9
Частота кадров : 23,976 кадра/сек
Цветовое пространство : YUV
Субдискретизация насыщенности : 4:2:0
Битовая глубина : 8 бит
Тип развёртки : Прогрессивная
Метод сжатия : С потерями
Бит/(Пиксели*Кадры) : 0.192
Размер потока : 414 Мбайт (83%)
Библиотека кодирования : XviD 64
Аудио #1
Идентификатор : 1
Формат : MPEG Audio
Версия формата : Version 1
Профиль формата : Layer 3
Режим : Joint stereo
Расширение режима : MS Stereo
Идентификатор кодека : 55
Идентификатор кодека/Подсказка : MP3
Продолжительность : 43 м.
Вид битрейта : Постоянный
Битрейт : 128 Кбит/сек
Каналы : 2 канала
Частота : 48,0 КГц
Метод сжатия : С потерями
Размер потока : 40,0 Мбайт (8%)
Выравнивание : Соединение по промежуткам
Продолжительность промежутка : 42 мс. (1,00 видеокадр)
Время предзагрузки промежутка : 504 мс.
Аудио #2
Идентификатор : 2
Формат : MPEG Audio
Версия формата : Version 1
Профиль формата : Layer 3
Режим : Joint stereo
Идентификатор кодека : 55
Идентификатор кодека/Подсказка : MP3
Продолжительность : 43 м.
Вид битрейта : Постоянный
Битрейт : 128 Кбит/сек
Каналы : 2 канала
Частота : 48,0 КГц
Метод сжатия : С потерями
Размер потока : 40,0 Мбайт (8%)
Выравнивание : Соединение по промежуткам
Продолжительность промежутка : 42 мс. (1,00 видеокадр)
Время предзагрузки промежутка : 504 мс.
-
-Скриншоты:
-
-
1. Открыть торрент
2. Снять галки с тех файлов торрента, которые мы не хотим закачивать. Оставляем только на нужных нам файлах (файле).
3. Нажать О.К.
В клиенте utorrent
Инструкция
1) Открыть торрент

2) Снять галки с тех файлов торрента, которые мы не хотим закачивать:
* либо вручную, снимая с каждого файла галку( скрин №1)
* либо, нажав кнопку "Снять метки (Select None)", сняв сразу со всех файлов(скрин №2)
№1

№2

Оставляем только на нужных нам файлах (файле).

3)Нажать О.К
-Добавлена шестнадцатая, заключительная, серия пятого сезона
Download / Скачать

Хотите скачать бесплатно? Зарегистрируйтесь на сайте (ссылка на регистрацию). Pirat.ca - самый быстрый торрент трекер в рунете!

Как скачивать  ·   Что такое торрент  ·   Рейтинг и ограничения



Последний раз редактировалось: kugesan (2015-03-31 17:59), всего редактировалось 23 раз(а)

Пост 14-Окт-2014 16:52 (спустя 4 часа)

Топик был перенесен из форума Зарубежные сериалы (Трюм) в форум Сериалы в эфире
TERMOS
 

Vanek2012

Морской Волк

Пост 20-Ноя-2014 15:55 (спустя 1 месяц 6 дней)

[Q] 

почему-то не качается(
[Профиль]  [ЛС] 

Канск

Штурман

Пост 26-Ноя-2014 08:32 (спустя 5 дней)

[Q] 

Помогаю с раздачей :)
[Профиль]  [ЛС] 

Vanek2012

Морской Волк

Пост 04-Дек-2014 03:16 (спустя 7 дней)

[Q] 

самый наверное лучший сезон, восьмая серия жесть конечно((
[Профиль]  [ЛС] 

kugesan ®

56634

Пост 16-Дек-2014 09:40 (спустя 12 дней)

[Q] 

Новые серии, в оригинале, выходят по выходным, в воскресение, плюс 2-3 дня на озвучку...
Это про алгоритм выхода новых серий.
А что касаемо девятой то во тут засада.
В общем, создатели взяли там аут, отпуск или еще как это называется, и девятая серия выйдет только феврале 15 года... вот как то так.
http://www.imdb.com/title/tt3853912/?ref_=ttep_ep9

_________________

В мире две бесконечности: вселенная и человеческая глупость - Альберт Эйнштен
«Можно вытащить человека из грязи, но нельзя вытащить грязь из человека»!
[Профиль]  [ЛС] 

osw1

Морской Волк

Пост 03-Мар-2015 15:21 (спустя 2 месяца 18 дней)

[Q] 

Не качается, да
[Профиль]  [ЛС] 

kugesan ®

56634

Пост 31-Мар-2015 17:59 (спустя 28 дней)

[Q] 

Добавлена шестнадцатая, заключительная, серия пятого сезона

_________________

В мире две бесконечности: вселенная и человеческая глупость - Альберт Эйнштен
«Можно вытащить человека из грязи, но нельзя вытащить грязь из человека»!
[Профиль]  [ЛС] 
Показать сообщения:    
Ответить на тему

Текущее время: Сегодня 06:23

Часовой пояс: GMT + 4



Вы не можете начинать темы
Вы не можете отвечать на сообщения
Вы не можете редактировать свои сообщения
Вы не можете удалять свои сообщения
Вы не можете голосовать в опросах
Вы не можете прикреплять файлы к сообщениям
Вы не можете скачивать файлы

▼ Вниз