ML
     
  Уважаемый Гость!
Вы можете поддержать проект и зарегистрироваться у наших партнеров - онлайн-стратегия MyLands. При регистрации в игре Вы получите код, который сможете активировать после регистрации на pirat.ca и получить 1000 дублонов.

Ваш код:
6f9ab67d502902cc72a06c406977ddb589b7f39d
 
     

Ходячие мертвецы / The Walking Dead / Сезон 5 / Полный / Серии: 16 из 16 (Эрнест Р. Дикерсон / Ernest R. Dickerson ...) [2014г., ужасы, триллер, драма, WEB-DLRip] MVO [LostFilm]

Страницы :  1, 2, 3  След.

Ответить на тему
 
Автор
Сообщение

Пост 15-Окт-2014 20:23

[Q] 

kugesan

Ходячие мертвецы
The Walking Dead

«Fight the dead. Fear the living.»
- Русское название: Ходячие мертвецы
Оригинальное название: The Walking Dead
Страна: США
Год выпуска: 2013
Жанр: Ужасы, Триллер, Драма, Приключения ...-Озвучка: Студия
Перевод: Многоголосый закадровый, профессиональный-Премьера (мир): 31 октября 2010
Премьера (РФ): 4 ноября 2010-Режиссер: Эрнест Р. Дикерсон / Ernest R. Dickerson, Гай Ферленд / Guy Ferland, Грег Никотеро / Greg Nicotero ...
В главных ролях: Эндрю Линкольн, Стивен Ян, Чендлер Риггз, Норман Ридус, Мелисса Сюзанн МакБрайд, Лорен Кохэн, Сара Уэйн Кэллис, Лори Холден, Скотт Уилсон, Эмили Кинни ...-Описание фильма:
Сериал рассказывает историю жизни семьи шерифа после того, как «зомби» — эпидемия апокалипсических масштабов захлестнула земной шар. Шериф Рик Грайм путешествует со своей семьей и небольшой группой выживших в поисках безопасного места для жизни. Но постоянный страх смерти каждый день приносит тяжелые потери, заставляя героев почувствовать глубины человеческой жестокости. Рик пытается спасти свою семью, и открывает для себя, что всепоглощающий страх тех, кто выжил, может быть опаснее бессмысленных мертвецов, бродящих по земле.-
Сезон: 5
Серии: 16 из 16 серий
Продолжительность: ~ 00:43:00 мин серия-Качество видео: WEB-DLRip
Формат: AVI
Видеокодек: XviD
Аудиокодек: Mp3
Видео: MPEG-4 Visual at 1915 Кбит/сек, 720 x 400 (1.800) at 23.976 fps, 0.28 Бит/Пиксели
Аудио Rus: MPEG Audio at 192 Кбит/сек, 2 канала, 48,0 КГц |LostFilm|
-VA - Ходячие мертвецы
Rameses B - The Walking Dead
Сериал "Ходячие мертвецы / The Walking Dead " на треке Pirat.ca-
  • Убежища нет (No Sanctuary)
  • Незнакомцы (Strangers)
  • Четыре стены и крыша (Four Walls and a Roof)
  • Слэбтаун (Slabtown)
  • Самообслуживание (Self Help)
  • Поглощённые (Consumed)
  • Обман (Crossed)
  • Кода (Coda)
  • Что случилось и что происходит (What Happened and What's Going On)
  • Они (Them)
  • Дистанция (The Distance)
  • Помни (Remember)
  • Забудь (Forget)
  • Тратить (Spend)
  • Стараться (Try)
  • Покорить (Conquer)
-
Общее
Полное имя : E:\_Сериалы\_Сериалы\Ходячие мертвецы\The Walking Dead.s05.LostFilm\The.Walking.Dead.S05E01.rus.LostFilm.TV.avi
Формат : AVI
Формат/Информация : Audio Video Interleave
Размер файла : 664 Мбайт
Продолжительность : 43 м.
Режим общего битрейта : Переменный
Общий поток : 2116 Кбит/сек
Программа кодирования : Nandub v1.0rc2
Библиотека кодирования : Nandub build 1853/release
Видео
Идентификатор : 0
Формат : MPEG-4 Visual
Профиль формата : Advanced [email protected]
Параметр BVOP формата : Нет
Параметр QPel формата : Нет
Параметр GMC формата : Без точки перехода
Параметр матрицы формата : Default (H.263)
Идентификатор кодека : XVID
Идентификатор кодека/Подсказка : XviD
Продолжительность : 43 м.
Битрейт : 1915 Кбит/сек
Ширина : 720 пикселей
Высота : 400 пикселей
Соотношение сторон : 16:9
Частота кадров : 23,976 кадра/сек
Цветовое пространство : YUV
Субдискретизация насыщенности : 4:2:0
Битовая глубина : 8 бит
Тип развёртки : Прогрессивная
Метод сжатия : С потерями
Бит/(Пиксели*Кадры) : 0.277
Размер потока : 601 Мбайт (91%)
Библиотека кодирования : XviD 1.2.1 (UTC 2008-12-04)
Аудио
Идентификатор : 1
Формат : MPEG Audio
Версия формата : Version 1
Профиль формата : Layer 3
Режим : Joint stereo
Расширение режима : MS Stereo
Идентификатор кодека : 55
Идентификатор кодека/Подсказка : MP3
Продолжительность : 43 м.
Вид битрейта : Переменный
Битрейт : 192 Кбит/сек
Каналы : 2 канала
Частота : 48,0 КГц
Метод сжатия : С потерями
Размер потока : 58,9 Мбайт (9%)
Выравнивание : Соединение по промежуткам
Продолжительность промежутка : 24 мс. (0,58 видеокадр)
Время предзагрузки промежутка : 487 мс.
Библиотека кодирования : LAME3.97b
Настройки программы : -m j -V 4 -q 3 -lowpass 18.6 --abr 192
-
-Скриншоты:
-
-
1. Открыть торрент
2. Снять галки с тех файлов торрента, которые мы не хотим закачивать. Оставляем только на нужных нам файлах (файле).
3. Нажать О.К.
В клиенте utorrent
Инструкция
1) Открыть торрент

2) Снять галки с тех файлов торрента, которые мы не хотим закачивать:
* либо вручную, снимая с каждого файла галку( скрин №1)
* либо, нажав кнопку "Снять метки (Select None)", сняв сразу со всех файлов(скрин №2)
№1

№2

Оставляем только на нужных нам файлах (файле).

3)Нажать О.К
-Добавлена шестнадцатая, заключительная, серия пятого сезона
Download / Скачать

Хотите скачать бесплатно? Зарегистрируйтесь на сайте (ссылка на регистрацию). Pirat.ca - самый быстрый торрент трекер в рунете!

Как скачивать  ·   Что такое торрент  ·   Рейтинг и ограничения



Последний раз редактировалось: kugesan (2016-11-07 13:40), всего редактировалось 25 раз(а)

Lestat1985

Пост 15-Окт-2014 20:34 (спустя 11 минут)

[Q] 

Неожиданно) Лови бочку

_________________
Мне наплевать на тех, кто уходит из моей жизни. Я найду замену каждому. Зато тех, кто остался, я люблю больше жизни.
[Профиль]  [ЛС] 

kugesan ®

56639

Пост 15-Окт-2014 21:21 (спустя 46 минут)

[Q] 

Приятного просмотра!!!

_________________

В мире две бесконечности: вселенная и человеческая глупость - Альберт Эйнштен
«Можно вытащить человека из грязи, но нельзя вытащить грязь из человека»!
[Профиль]  [ЛС] 

Lestat1985

Пост 15-Окт-2014 22:52 (спустя 1 час 31 минута)

[Q] 

Сезон обещает быть захватывающим)

_________________
Мне наплевать на тех, кто уходит из моей жизни. Я найду замену каждому. Зато тех, кто остался, я люблю больше жизни.
[Профиль]  [ЛС] 

kugesan ®

56639

Пост 15-Окт-2014 23:15 (спустя 23 минуты)

[Q] 

Первая серия просто супер, главное что бы к концу сезона не "сдулись")))

_________________

В мире две бесконечности: вселенная и человеческая глупость - Альберт Эйнштен
«Можно вытащить человека из грязи, но нельзя вытащить грязь из человека»!
[Профиль]  [ЛС] 

cactus00

Лоцман

Пост 21-Окт-2014 22:58 (спустя 5 дней)

[Q] 

Когда вторую серию добавите????
[Профиль]  [ЛС] 

VictorD

Шкипер

66

Пост 29-Окт-2014 17:33 (спустя 7 дней)

[Q] 

kugesan, Почему размер файла третьей серии такой маленький?
[Профиль]  [ЛС] 

TERMOS

Легенда

12002

Пост 29-Окт-2014 20:10 (спустя 2 часа 37 минут)

[Q] 

VictorD, хороший вопрос.

_________________
[Профиль]  [ЛС] 

kugesan ®

56639

Пост 29-Окт-2014 20:55 (спустя 44 минуты)

[Q] 

Какой был на Лосте такой и закачал...
Если там исправят то и нас тут же заменю)

_________________

В мире две бесконечности: вселенная и человеческая глупость - Альберт Эйнштен
«Можно вытащить человека из грязи, но нельзя вытащить грязь из человека»!
[Профиль]  [ЛС] 

TERMOS

Легенда

12002

Пост 29-Окт-2014 23:29 (спустя 2 часа 33 минуты)

[Q] 

kugesan, ответ прост. Битрейт в половину убили:
Общее
Полное имя : D:\Ходячие мертвецы (сезон 5) The Walking Dead (2014) WEB-DLRip - LostFilm\The.Walking.Dead.S05E03.rus.LostFilm.TV.avi
Формат : AVI
Формат/Информация : Audio Video Interleave
Размер файла : 319 Мбайт
Продолжительность : 43 м.
Режим общего битрейта : Переменный
Общий поток : 1029 Кбит/сек
Программа кодирования : Nandub v1.0rc2
Библиотека кодирования : Nandub build 1853/release
Видео
Идентификатор : 0
Формат : MPEG-4 Visual
Профиль формата : Advanced [email protected]
Параметр BVOP формата : Нет
Параметр QPel формата : Нет
Параметр GMC формата : Без точки перехода
Параметр матрицы формата : Default (H.263)
Идентификатор кодека : XVID
Идентификатор кодека/Подсказка : XviD
Продолжительность : 43 м.
Битрейт : 829 Кбит/сек
Ширина : 720 пикселей
Высота : 400 пикселей
Соотношение сторон : 16:9
Частота кадров : 23,976 кадра/сек
Цветовое пространство : YUV
Субдискретизация насыщенности : 4:2:0
Битовая глубина : 8 бит
Тип развёртки : Прогрессивная
Метод сжатия : С потерями
Бит/(Пиксели*Кадры) : 0.120
Размер потока : 257 Мбайт (81%)
Библиотека кодирования : XviD 1.2.1 (UTC 2008-12-04)
Аудио
Идентификатор : 1
Формат : MPEG Audio
Версия формата : Version 1
Профиль формата : Layer 3
Режим : Joint stereo
Расширение режима : MS Stereo
Идентификатор кодека : 55
Идентификатор кодека/Подсказка : MP3
Продолжительность : 43 м.
Вид битрейта : Переменный
Битрейт : 192 Кбит/сек
Каналы : 2 канала
Частота : 48,0 КГц
Метод сжатия : С потерями
Размер потока : 58,0 Мбайт (18%)
Выравнивание : Соединение по промежуткам
Продолжительность промежутка : 24 мс. (0,58 видеокадр)
Время предзагрузки промежутка : 488 мс.
Библиотека кодирования : LAME3.97b
Настройки программы : -m j -V 4 -q 3 -lowpass 18.6 --abr 192
Мой совет в личке.

_________________
[Профиль]  [ЛС] 

kotafanas

Морской Волк

95

Пост 30-Окт-2014 15:56 (спустя 16 часов)

[Q] 

Ходячие Болтуны Отказать

_________________



[Профиль]  [ЛС] 

ягжин

Гроза морей

Пост 01-Ноя-2014 13:26 (спустя 1 день 21 час)

[Q] 

Спасибо! Автору респект!!! Лови бочку
[Профиль]  [ЛС] 

Ворон

16576

Пост 02-Ноя-2014 20:39 (спустя 1 день 7 часов)

[Q] 

(Drum & Bass) Rameses B - The Walking Dead - 2014 [MP3, tracks, 320 kbps]

_________________
Временно меня не будет на раздаче в связи с переездом на новое место. Заранее извиняюсь. Если уж, кому сильно надо будет, пишите в ЛС, что нибудь придумаю. Раздача с 1:00-7:00
[Профиль]  [ЛС] 

kugesan ®

56639

Пост 02-Ноя-2014 22:35 (спустя 1 час 56 минут)

[Q] 

Ворон, Если не против, то я разместил ссылку в самом описании)

_________________

В мире две бесконечности: вселенная и человеческая глупость - Альберт Эйнштен
«Можно вытащить человека из грязи, но нельзя вытащить грязь из человека»!
[Профиль]  [ЛС] 

Ворон

16576

Пост 03-Ноя-2014 00:24 (спустя 1 час 48 минут)

[Q] 

600079Ворон, Если не против, то я разместил ссылку в самом описании)
Привет) Не против)
Добавлено спустя 1 час 17 минут 5 секунд:
Soundtrack (OST) VA - Ходячие мертвецы / The Walking Dead (AMC's Original Soundtrack) - Vol. 1, 2 - 2013-2014 [MP3, tracks, 320 kbps] (пост)

_________________
Временно меня не будет на раздаче в связи с переездом на новое место. Заранее извиняюсь. Если уж, кому сильно надо будет, пишите в ЛС, что нибудь придумаю. Раздача с 1:00-7:00
[Профиль]  [ЛС] 

sevensv

Легенда

2581

Пост 03-Ноя-2014 15:25 (спустя 15 часов)

[Q] 

Лови бочку Спасибо!!!
[Профиль]  [ЛС] 

СерВолк

Корсар

Пост 03-Ноя-2014 23:59 (спустя 8 часов)

[Q] 

VictorD, TERMOS,
актеры в два раза меньше двигаться стали
некоторые фоны заднего плана заменены jpg снимки
стали делать репаки на сериал cm
[Профиль]  [ЛС] 

sasha26818

Штурман

Пост 06-Ноя-2014 00:04 (спустя 2 дня)

[Q] 

Эй, вернитесь на раздачу... Раздавать будем или как? нету скорости удалил торент
[Профиль]  [ЛС] 

Lestat1985

Пост 06-Ноя-2014 14:17 (спустя 14 часов)

[Q] 

601802Сидов:  5  [  2 MB/s  ]
Это так для справки. Раздача идёт, ищите проблему у себя.

_________________
Мне наплевать на тех, кто уходит из моей жизни. Я найду замену каждому. Зато тех, кто остался, я люблю больше жизни.
[Профиль]  [ЛС] 

nzna

Лоцман

Пост 07-Ноя-2014 04:20 (спустя 14 часов)

[Q] 

Супер сериал!
[Профиль]  [ЛС] 

KHETAG

Шкипер

Пост 07-Ноя-2014 11:21 (спустя 7 часов)

[Q] 

Всем привет спасибо автору! ЗА РЕЛИЗ) Буду помогать раздавать! Супер! Лови бочку
TERMOS ПОЧЕМУ ЗАБРОСИЛ СВОЙ СВОЙ РЕЛИЗ? FULLHD ?
[Профиль]  [ЛС] 

VictorD

Шкипер

66

Пост 07-Ноя-2014 12:38 (спустя 1 час 16 минут)

[Q] 

601719Добавлена четвертая серия пятого сезона
!COOL! Лови бочку
[Профиль]  [ЛС] 

kugesan ®

56639

Пост 07-Ноя-2014 17:54 (спустя 5 часов)

[Q] 

VictorD, aa az

_________________

В мире две бесконечности: вселенная и человеческая глупость - Альберт Эйнштен
«Можно вытащить человека из грязи, но нельзя вытащить грязь из человека»!
[Профиль]  [ЛС] 

ss80

Флибустьер

36

Пост 12-Ноя-2014 21:58 (спустя 5 дней)

[Q] 

Спасибо!!! Супер!
[Профиль]  [ЛС] 

gyren

Морской Волк

Пост 13-Ноя-2014 21:51 (спустя 23 часа)

[Q] 

класс 66666666666666666666660000000
[Профиль]  [ЛС] 

VictorD

Шкипер

66

Пост 14-Ноя-2014 16:42 (спустя 18 часов)

[Q] 

604602Добавлена пятая серия пятого сезона
Отлично, качаю и раздаю))) !COOL! Лови бочку
[Профиль]  [ЛС] 

VictorD

Шкипер

66

Пост 26-Ноя-2014 10:55 (спустя 11 дней)

[Q] 

Гран мерси !COOL! Супер!
[Профиль]  [ЛС] 

papa0423

Морской Волк

691

Пост 26-Ноя-2014 12:35 (спустя 1 час 39 минут)

[Q] 

Спасибо!!! Автору респект!!! спасибо
[Профиль]  [ЛС] 

Zetvelkras

Шкипер

Пост 28-Ноя-2014 13:24 (спустя 2 дня)

[Q] 

Спасибо:) Лови бочку
[Профиль]  [ЛС] 

Vintorezov REG 39

Легенда

176

Пост 28-Ноя-2014 21:50 (спустя 8 часов)

[Q] 

клллааассссссссс
[Профиль]  [ЛС] 
Показать сообщения:    
Ответить на тему

Текущее время: Сегодня 16:30

Часовой пояс: GMT + 4



Вы не можете начинать темы
Вы не можете отвечать на сообщения
Вы не можете редактировать свои сообщения
Вы не можете удалять свои сообщения
Вы не можете голосовать в опросах
Вы не можете прикреплять файлы к сообщениям
Вы не можете скачивать файлы

▼ Вниз